  0
SECTION
  2
HEADER
  9
$ACADVER
  1
AC1015
  9
$ACADMAINTVER
 70
    20
  9
$DWGCODEPAGE
  3
ANSI_1252
  9
$INSBASE
 10
0.0
 20
0.0
 30
0.0
  9
$EXTMIN
 10
558.1329401095081
 20
982.8490259240489
 30
-0.0000000698494069
  9
$EXTMAX
 10
982.2280919670919
 20
1623.212944795331
 30
0.0000000465733773
  9
$LIMMIN
 10
0.0
 20
0.0
  9
$LIMMAX
 10
2100.0
 20
1485.0
  9
$ORTHOMODE
 70
     1
  9
$REGENMODE
 70
     1
  9
$FILLMODE
 70
     1
  9
$QTEXTMODE
 70
     0
  9
$MIRRTEXT
 70
     1
  9
$LTSCALE
 40
5.0
  9
$ATTMODE
 70
     1
  9
$TEXTSIZE
 40
17.5
  9
$TRACEWID
 40
1.0
  9
$TEXTSTYLE
  7
STANDARD
  9
$CLAYER
  8
0
  9
$CELTYPE
  6
BYLAYER
  9
$CECOLOR
 62
   256
  9
$CELTSCALE
 40
1.0
  9
$DISPSILH
 70
     0
  9
$DIMSCALE
 40
5.0
  9
$DIMASZ
 40
2.5
  9
$DIMEXO
 40
1.0
  9
$DIMDLI
 40
7.0
  9
$DIMRND
 40
0.0
  9
$DIMDLE
 40
0.0
  9
$DIMEXE
 40
1.0
  9
$DIMTP
 40
0.1
  9
$DIMTM
 40
0.1
  9
$DIMTXT
 40
3.5
  9
$DIMCEN
 40
0.0
  9
$DIMTSZ
 40
0.0
  9
$DIMTOL
 70
     0
  9
$DIMLIM
 70
     0
  9
$DIMTIH
 70
     0
  9
$DIMTOH
 70
     0
  9
$DIMSE1
 70
     0
  9
$DIMSE2
 70
     0
  9
$DIMTAD
 70
     1
  9
$DIMZIN
 70
     8
  9
$DIMBLK
  1

  9
$DIMASO
 70
     1
  9
$DIMSHO
 70
     1
  9
$DIMPOST
  1
<>
  9
$DIMAPOST
  1

  9
$DIMALT
 70
     0
  9
$DIMALTD
 70
     2
  9
$DIMALTF
 40
0.03937
  9
$DIMLFAC
 40
1.0
  9
$DIMTOFL
 70
     1
  9
$DIMTVP
 40
0.0
  9
$DIMTIX
 70
     0
  9
$DIMSOXD
 70
     0
  9
$DIMSAH
 70
     0
  9
$DIMBLK1
  1

  9
$DIMBLK2
  1

  9
$DIMSTYLE
  2
GEN-ISO
  9
$DIMCLRD
 70
   256
  9
$DIMCLRE
 70
   256
  9
$DIMCLRT
 70
     2
  9
$DIMTFAC
 40
0.71
  9
$DIMGAP
 40
0.6
  9
$DIMJUST
 70
     0
  9
$DIMSD1
 70
     0
  9
$DIMSD2
 70
     0
  9
$DIMTOLJ
 70
     1
  9
$DIMTZIN
 70
     8
  9
$DIMALTZ
 70
     8
  9
$DIMALTTZ
 70
     8
  9
$DIMUPT
 70
     0
  9
$DIMDEC
 70
     2
  9
$DIMTDEC
 70
     2
  9
$DIMALTU
 70
     2
  9
$DIMALTTD
 70
     2
  9
$DIMTXSTY
  7
STANDARD
  9
$DIMAUNIT
 70
     0
  9
$DIMADEC
 70
     0
  9
$DIMALTRND
 40
0.0
  9
$DIMAZIN
 70
     0
  9
$DIMDSEP
 70
    46
  9
$DIMATFIT
 70
     3
  9
$DIMFRAC
 70
     0
  9
$DIMLDRBLK
  1

  9
$DIMLUNIT
 70
     2
  9
$DIMLWD
 70
    -2
  9
$DIMLWE
 70
    -2
  9
$DIMTMOVE
 70
     0
  9
$LUNITS
 70
     2
  9
$LUPREC
 70
     2
  9
$SKETCHINC
 40
0.1
  9
$FILLETRAD
 40
0.5
  9
$AUNITS
 70
     0
  9
$AUPREC
 70
     0
  9
$MENU
  1
.
  9
$ELEVATION
 40
0.0
  9
$PELEVATION
 40
0.0
  9
$THICKNESS
 40
0.0
  9
$LIMCHECK
 70
     0
  9
$CHAMFERA
 40
12.5
  9
$CHAMFERB
 40
12.5
  9
$CHAMFERC
 40
0.0
  9
$CHAMFERD
 40
0.0
  9
$SKPOLY
 70
     0
  9
$TDCREATE
 40
2450368.394609815
  9
$TDUCREATE
 40
2450368.352943148
  9
$TDUPDATE
 40
2454089.791367917
  9
$TDUUPDATE
 40
2454089.749701250
  9
$TDINDWG
 40
0.4024994560
  9
$TDUSRTIMER
 40
0.4024934375
  9
$USRTIMER
 70
     1
  9
$ANGBASE
 50
0.0
  9
$ANGDIR
 70
     0
  9
$PDMODE
 70
     0
  9
$PDSIZE
 40
0.0
  9
$PLINEWID
 40
5.0
  9
$SPLFRAME
 70
     0
  9
$SPLINETYPE
 70
     6
  9
$SPLINESEGS
 70
     8
  9
$HANDSEED
  5
4867
  9
$SURFTAB1
 70
     6
  9
$SURFTAB2
 70
     6
  9
$SURFTYPE
 70
     6
  9
$SURFU
 70
     6
  9
$SURFV
 70
     6
  9
$UCSBASE
  2

  9
$UCSNAME
  2

  9
$UCSORG
 10
0.0
 20
0.0
 30
0.0
  9
$UCSXDIR
 10
1.0
 20
0.0
 30
0.0
  9
$UCSYDIR
 10
0.0
 20
1.0
 30
0.0
  9
$UCSORTHOREF
  2

  9
$UCSORTHOVIEW
 70
     0
  9
$UCSORGTOP
 10
0.0
 20
0.0
 30
0.0
  9
$UCSORGBOTTOM
 10
0.0
 20
0.0
 30
0.0
  9
$UCSORGLEFT
 10
0.0
 20
0.0
 30
0.0
  9
$UCSORGRIGHT
 10
0.0
 20
0.0
 30
0.0
  9
$UCSORGFRONT
 10
0.0
 20
0.0
 30
0.0
  9
$UCSORGBACK
 10
0.0
 20
0.0
 30
0.0
  9
$PUCSBASE
  2

  9
$PUCSNAME
  2

  9
$PUCSORG
 10
0.0
 20
0.0
 30
0.0
  9
$PUCSXDIR
 10
1.0
 20
0.0
 30
0.0
  9
$PUCSYDIR
 10
0.0
 20
1.0
 30
0.0
  9
$PUCSORTHOREF
  2

  9
$PUCSORTHOVIEW
 70
     0
  9
$PUCSORGTOP
 10
0.0
 20
0.0
 30
0.0
  9
$PUCSORGBOTTOM
 10
0.0
 20
0.0
 30
0.0
  9
$PUCSORGLEFT
 10
0.0
 20
0.0
 30
0.0
  9
$PUCSORGRIGHT
 10
0.0
 20
0.0
 30
0.0
  9
$PUCSORGFRONT
 10
0.0
 20
0.0
 30
0.0
  9
$PUCSORGBACK
 10
0.0
 20
0.0
 30
0.0
  9
$USERI1
 70
     0
  9
$USERI2
 70
     0
  9
$USERI3
 70
     0
  9
$USERI4
 70
     0
  9
$USERI5
 70
     0
  9
$USERR1
 40
0.0
  9
$USERR2
 40
0.0
  9
$USERR3
 40
0.0
  9
$USERR4
 40
0.0
  9
$USERR5
 40
0.0
  9
$WORLDVIEW
 70
     1
  9
$SHADEDGE
 70
     3
  9
$SHADEDIF
 70
    70
  9
$TILEMODE
 70
     1
  9
$MAXACTVP
 70
    16
  9
$PINSBASE
 10
0.0
 20
0.0
 30
0.0
  9
$PLIMCHECK
 70
     0
  9
$PEXTMIN
 10
1.000000000000000E+20
 20
1.000000000000000E+20
 30
1.000000000000000E+20
  9
$PEXTMAX
 10
-1.000000000000000E+20
 20
-1.000000000000000E+20
 30
-1.000000000000000E+20
  9
$PLIMMIN
 10
0.0
 20
0.0
  9
$PLIMMAX
 10
420.0
 20
297.0
  9
$UNITMODE
 70
     0
  9
$VISRETAIN
 70
     0
  9
$PLINEGEN
 70
     0
  9
$PSLTSCALE
 70
     1
  9
$TREEDEPTH
 70
  3020
  9
$CMLSTYLE
  2
STANDARD
  9
$CMLJUST
 70
     0
  9
$CMLSCALE
 40
1.0
  9
$PROXYGRAPHICS
 70
     1
  9
$MEASUREMENT
 70
     1
  9
$CELWEIGHT
370
    -1
  9
$ENDCAPS
280
     0
  9
$JOINSTYLE
280
     0
  9
$LWDISPLAY
290
     0
  9
$INSUNITS
 70
     0
  9
$HYPERLINKBASE
  1

  9
$STYLESHEET
  1

  9
$XEDIT
290
     1
  9
$CEPSNTYPE
380
     0
  9
$PSTYLEMODE
290
     1
  9
$FINGERPRINTGUID
  2
{B79F358D-BBB4-4D50-A817-42DF59552F0B}
  9
$VERSIONGUID
  2
{691AA440-914B-43E0-9B86-7BEB490B7F9E}
  9
$EXTNAMES
290
     1
  9
$PSVPSCALE
 40
0.0
  9
$OLESTARTUP
290
     0
  0
ENDSEC
  0
SECTION
  2
CLASSES
  0
CLASS
  1
DICTIONARYVAR
  2
AcDbDictionaryVar
  3
ObjectDBX Classes
 90
        0
280
     0
281
     0
  0
CLASS
  1
ACDBDICTIONARYWDFLT
  2
AcDbDictionaryWithDefault
  3
ObjectDBX Classes
 90
        0
280
     0
281
     0
  0
CLASS
  1
TABLESTYLE
  2
AcDbTableStyle
  3
ObjectDBX Classes
 90
     2047
280
     0
281
     0
  0
CLASS
  1
AMGSETTINGSOBJ
  2
AmgSettingsObj
  3
"AcadM|Product Description: AutoCAD Mechanical 2000|Company: Autodesk"
 90
        0
280
     0
281
     0
  0
CLASS
  1
ACME_DOCUMENT
  2
AcMeDbDoc
  3
AcMeServices
 90
        0
280
     0
281
     0
  0
CLASS
  1
ACMESCOPE
  2
AcMeScope
  3
AcMeServices
 90
        0
280
     0
281
     0
  0
CLASS
  1
ACMECOMMANDHISTORY
  2
AcMeCommandHistory
  3
AcMeServices
 90
        0
280
     0
281
     0
  0
CLASS
  1
ACIMSYSVARMAN
  2
AcImSysVarManager
  3
AcMeServices
 90
        0
280
     0
281
     0
  0
CLASS
  1
ACIMINTSYSVAR
  2
AcImIntSysVar
  3
AcMeServices
 90
        0
280
     0
281
     0
  0
CLASS
  1
ACMEDRAWINGMAN
  2
AcMeDrawingMan
  3
AcMeServices
 90
        0
280
     0
281
     0
  0
CLASS
  1
ACMEVIEW
  2
AcMeView
  3
AcMeServices
 90
        0
280
     0
281
     0
  0
CLASS
  1
ACDBENTITYCACHE
  2
AcMeEntityCache
  3
AcMeServices
 90
        0
280
     0
281
     0
  0
CLASS
  1
GSMANAGER
  2
AcMeGSManager
  3
AcMeServices
 90
        0
280
     0
281
     0
  0
CLASS
  1
AMDTINTERNALREACTOR
  2
AmdtInternalReactor
  3
AcMeServices
 90
        0
280
     0
281
     0
  0
CLASS
  1
ACMESTATEMGR
  2
AcMeStateMgr
  3
AcMeServices
 90
        0
280
     0
281
     0
  0
CLASS
  1
ACGREFMASTER
  2
AcGrefMaster
  3
AcAttribServices
 90
        0
280
     0
281
     0
  0
CLASS
  1
AM_DRAWING_MGR
  2
AcDmDwgMgr
  3
AcMechDwgViewMgmt
 90
        0
280
     0
281
     0
  0
CLASS
  1
AM_DWG_DOCUMENT
  2
AcDmDwgDocument
  3
AcMechDwgViewMgmt
 90
        0
280
     0
281
     0
  0
CLASS
  1
AM_DWG_SHEET
  2
AcDmSheet
  3
AcMechDwgViewMgmt
 90
        0
280
     0
281
     0
  0
CLASS
  1
AM_VIEWDIMPARMAP
  2
AcDmViewDimParMap
  3
AcMechDwgViewMgmt
 90
        0
280
     0
281
     0
  0
CLASS
  1
ACIMREALSYSVAR
  2
AcImRealSysVar
  3
AcMeServices
 90
        0
280
     0
281
     0
  0
CLASS
  1
AM_DWGMGR_NAME
  2
AcDmDwgMgrName
  3
AcMechDwgViewMgmt
 90
        0
280
     0
281
     0
  0
CLASS
  1
ACME_DATABASE
  2
AcMeDbDatabase
  3
AcMeServices
 90
        0
280
     0
281
     0
  0
CLASS
  1
ACRFINSADJUSTERMGR
  2
AcRfInsAdjusterMgr
  3
AcMeServices
 90
        0
280
     0
281
     0
  0
CLASS
  1
ACGREFACADMASTER
  2
AcGrefacadMaster
  3
AcGrefServices
 90
        0
280
     0
281
     0
  0
CLASS
  1
AMDTMENUSTATEMGR
  2
AmdtMenuStateMgr
  3
McadcomServices
 90
        0
280
     0
281
     0
  0
CLASS
  1
AMDTMCOMMENUSTATE
  2
AmdtMcomMenuState
  3
McadcomServices
 90
        0
280
     0
281
     0
  0
CLASS
  1
AMIMASTER
  2
AmiMaster
  3
AmiServices
 90
        0
280
     0
281
     0
  0
CLASS
  1
MAPIAMMOUDLE
  2
MApiAmModule
  3
MApiAmServices
 90
        0
280
     0
281
     0
  0
CLASS
  1
ACIMSTRSYSVAR
  2
AcImStrSysVar
  3
AcMeServices
 90
        0
280
     0
281
     0
  0
CLASS
  1
AMDTADMENUSTATE
  2
AmdtAdMenuState
  3
DesignerServices
 90
        0
280
     0
281
     0
  0
CLASS
  1
ADAPPL
  2
AcAdAppl
  3
DesignerServices
 90
        0
280
     0
281
     0
  0
CLASS
  1
DEPMGR
  2
AcAdDepMgr
  3
DesignerServices
 90
        0
280
     0
281
     0
  0
CLASS
  1
PARAMMGR
  2
AcAdParamMgr
  3
DesignerServices
 90
        0
280
     0
281
     0
  0
CLASS
  1
PARAMSCOPE
  2
AcAdParamScope
  3
DesignerServices
 90
        0
280
     0
281
     0
  0
CLASS
  1
NAMEDAPPL
  2
AcAdNamedAppl
  3
DesignerServices
 90
        0
280
     0
281
     0
  0
CLASS
  1
AMDTDMMENUSTATE
  2
AmdtDmMenuState
  3
AcMechDwgViewMgmt
 90
        0
280
     0
281
     0
  0
CLASS
  1
AMDTAMMENUSTATE
  2
AmdtAmMenuState
  3
DesignerAssemblies
 90
        0
280
     0
281
     0
  0
CLASS
  1
ACAMPROJECT
  2
AcAmProject
  3
DesignerAssemblies
 90
        0
280
     0
281
     0
  0
CLASS
  1
ACAMGRCOMPDEF
  2
AcAmGrCompDef
  3
DesignerAssemblies
 90
        0
280
     0
281
     0
  0
CLASS
  1
ACCMCONTEXT
  2
AcCmContext
  3
DesignerAssemblies
 90
        0
280
     0
281
     0
  0
CLASS
  1
ACAMCOMPDEF
  2
AcAmCompDef
  3
DesignerAssemblies
 90
        0
280
     0
281
     0
  0
CLASS
  1
ACAMCOMPDEFMGR
  2
AcAmCompDefMgr
  3
DesignerAssemblies
 90
        0
280
     0
281
     0
  0
CLASS
  1
AMCONTEXTMGR
  2
AcAmContextMgr
  3
DesignerAssemblies
 90
        0
280
     0
281
     0
  0
CLASS
  1
ACAMCONTEXTMODELER
  2
AcAmContextModeler
  3
DesignerAssemblies
 90
        0
280
     0
281
     0
  0
CLASS
  1
ACMDATADICTIONARY
  2
AcmDataDictionary
  3
"AcmSymBB|Product Description: AutoCAD Mechanical 2004 DX|Company: Autodesk"
 90
        0
280
     0
281
     0
  0
CLASS
  1
CATALOGSTATE
  2
AcAmCatalogState
  3
DesignerAssemblies
 90
        0
280
     0
281
     0
  0
CLASS
  1
ACAMGRCOMPDEFSET
  2
AcAmGrCompDefSet
  3
DesignerAssemblies
 90
        0
280
     0
281
     0
  0
CLASS
  1
AMDTBROWSERDBTAB
  2
AmdtBrowserDbTab
  3
McadcomServices
 90
        0
280
     0
281
     0
  0
CLASS
  1
CBROWSERAPPOBJECT
  2
CBrowserAppObject
  3
McadcomServices
 90
        0
280
     0
281
     0
  0
CLASS
  1
DM_PLACEHOLDER
  2
AcDmSelsetPlaceholder
  3
AcMechDwgViewMgmt
 90
        0
280
     0
281
     0
  0
CLASS
  1
ACMSTANDARDDIN
  2
AcmStandardDIN
  3
"Amdt_StdImp|Product Description: AutoCAD Mechanical 2004 DX|Company: Autodesk"
 90
        0
280
     0
281
     0
  0
CLASS
  1
AMGOBJPROPCFG
  2
AmgObjPropCfg
  3
"AmgLay|Product Description: AutoCAD Mechanical 2000|Company: Autodesk"
 90
        1
280
     0
281
     0
  0
CLASS
  1
AMDTEDGESTANDARDDIN13715
  2
AmdtEdgeStdDIN13715
  3
"Amdt_StdImp|Product Description: AutoCAD Mechanical 2004 DX|Company: Autodesk"
 90
        0
280
     0
281
     0
  0
CLASS
  1
ACMSURFSTANDARDDIN
  2
AcmSurfTextStdDIN
  3
"Amdt_StdImp|Product Description: AutoCAD Mechanical 2004 DX|Company: Autodesk"
 90
        0
280
     0
281
     0
  0
CLASS
  1
ACMFCFSTANDARDDIN
  2
AcmFCFStdDIN
  3
"Amdt_StdImp|Product Description: AutoCAD Mechanical 2004 DX|Company: Autodesk"
 90
        0
280
     0
281
     0
  0
CLASS
  1
ACMWELDSTANDARDDIN
  2
AcmWeldingStdDIN
  3
"Amdt_StdImp|Product Description: AutoCAD Mechanical 2004 DX|Company: Autodesk"
 90
        0
280
     0
281
     0
  0
CLASS
  1
ACMIDSTANDARDDIN
  2
AcmIdStdDIN
  3
"Amdt_StdImp|Product Description: AutoCAD Mechanical 2004 DX|Company: Autodesk"
 90
        0
280
     0
281
     0
  0
CLASS
  1
ACMDATUMSTANDARDDIN
  2
AcmDatumStdDIN
  3
"Amdt_StdImp|Product Description: AutoCAD Mechanical 2004 DX|Company: Autodesk"
 90
        0
280
     0
281
     0
  0
CLASS
  1
ACMBOMSTANDARDDIN
  2
AcmBOMStdDIN
  3
"Amdt_StdImp|Product Description: AutoCAD Mechanical 2004 DX|Company: Autodesk"
 90
        0
280
     0
281
     0
  0
CLASS
  1
ACMDETAILSTANDARDDIN
  2
AmdtDetailSymStdDIN
  3
"Amdt_StdImp|Product Description: AutoCAD Mechanical 2004 DX|Company: Autodesk"
 90
        0
280
     0
281
     0
  0
CLASS
  1
ACMSECTIONSTANDARDDIN
  2
AmdtSectionSymStdDIN
  3
"Amdt_StdImp|Product Description: AutoCAD Mechanical 2004 DX|Company: Autodesk"
 90
        0
280
     0
281
     0
  0
CLASS
  1
ACMCENTERLINESTANDARDDIN
  2
AmdtCenterLineStdDIN
  3
"Amdt_StdImp|Product Description: AutoCAD Mechanical 2004 DX|Company: Autodesk"
 90
        0
280
     0
281
     0
  0
CLASS
  1
ACMTHREADLINESTANDARDDIN
  2
AmdtThreadLineStdDIN
  3
"Amdt_StdImp|Product Description: AutoCAD Mechanical 2004 DX|Company: Autodesk"
 90
        0
280
     0
281
     0
  0
CLASS
  1
ACMNOTESTANDARDDIN
  2
AmdtNoteStdDIN
  3
"Amdt_StdImp|Product Description: AutoCAD Mechanical 2004 DX|Company: Autodesk"
 90
        0
280
     0
281
     0
  0
CLASS
  1
AMDTNOTETEMPLATEDB
  2
AmdtNoteTemplateDB
  3
AMDT_STDIMP_MODULE_NAME
 90
        0
280
     0
281
     0
  0
CLASS
  1
ACAMGLAYSTD
  2
AcAmgLayStd
  3
"AcAmgLayStd|Product Description: AutoCAD Mechanical 2000|Company: Autodesk"
 90
        0
280
     0
281
     0
  0
CLASS
  1
ACAMGDIMSTD
  2
AcAmgDimStd
  3
"AcAmgDimStd|Product Description: AutoCAD Mechanical 2000|Company: Autodesk"
 90
        0
280
     0
281
     0
  0
CLASS
  1
ACAMGHOLECHARTSTDDIN
  2
AcAmgHoleChartStdDIN
  3
ACMSYMBB_MODULE_NAME
 90
        0
280
     0
281
     0
  0
CLASS
  1
ACAMGTITLESTD
  2
AcAmgTitleStd
  3
"TITLEAPP"
 90
        0
280
     0
281
     0
  0
CLASS
  1
ACAMGFILTERDAT
  2
AcAmgFilterDat
  3
"AcadM|Product Description: AutoCAD Mechanical 2000|Company: Autodesk"
 90
        0
280
     0
281
     0
  0
CLASS
  1
ACDBPLACEHOLDER
  2
AcDbPlaceHolder
  3
ObjectDBX Classes
 90
        0
280
     0
281
     0
  0
CLASS
  1
LAYOUT
  2
AcDbLayout
  3
ObjectDBX Classes
 90
        0
280
     0
281
     0
  0
ENDSEC
  0
SECTION
  2
TABLES
  0
TABLE
  2
VPORT
  5
471A
330
0
100
AcDbSymbolTable
 70
     4
  0
VPORT
  5
485F
330
471A
100
AcDbSymbolTableRecord
100
AcDbViewportTableRecord
  2
*Active
 70
     0
 10
0.0
 20
0.0
 11
1.0
 21
1.0
 12
770.1805160383001
 22
1303.03098535969
 13
0.0
 23
0.0
 14
5.0
 24
5.0
 15
50.0
 25
50.0
 16
0.0
 26
0.0
 36
1.0
 17
0.0
 27
0.0
 37
0.0
 40
645.0154727613885
 41
1.494545454545454
 42
50.0
 43
0.0
 44
0.0
 50
0.0
 51
0.0
 71
     0
 72
   100
 73
     1
 74
     1
 75
     0
 76
     0
 77
     0
 78
     0
281
     0
 65
     0
110
0.0
120
0.0
130
0.0
111
1.0
121
0.0
131
0.0
112
0.0
122
1.0
132
0.0
 79
     0
146
0.0
  0
ENDTAB
  0
TABLE
  2
LTYPE
  5
4717
330
0
100
AcDbSymbolTable
 70
    22
  0
LTYPE
  5
4723
330
4717
100
AcDbSymbolTableRecord
100
AcDbLinetypeTableRecord
  2
BYBLOCK
 70
     0
  3

 72
    65
 73
     0
 40
0.0
  0
LTYPE
  5
4724
330
4717
100
AcDbSymbolTableRecord
100
AcDbLinetypeTableRecord
  2
BYLAYER
 70
     0
  3

 72
    65
 73
     0
 40
0.0
  0
LTYPE
  5
4725
330
4717
100
AcDbSymbolTableRecord
100
AcDbLinetypeTableRecord
  2
CONTINUOUS
 70
     0
  3
Solid line
 72
    65
 73
     0
 40
0.0
  0
LTYPE
  5
4743
330
4717
100
AcDbSymbolTableRecord
100
AcDbLinetypeTableRecord
  2
GEN7
 70
     0
  3
____ . ____ . ____ . ____ . ____ . ____ . ____
 72
    65
 73
     4
 40
13.75
 49
10.0
 74
     0
 49
-1.25
 74
     0
 49
1.25
 74
     0
 49
-1.25
 74
     0
  0
LTYPE
  5
4744
330
4717
100
AcDbSymbolTableRecord
100
AcDbLinetypeTableRecord
  2
GEN7A
 70
     0
  3
__ . __ . __
 72
    65
 73
     4
 40
6.875
 49
5.0
 74
     0
 49
-0.625
 74
     0
 49
0.625
 74
     0
 49
-0.625
 74
     0
  0
LTYPE
  5
4745
330
4717
100
AcDbSymbolTableRecord
100
AcDbLinetypeTableRecord
  2
GEN3
 70
     0
  3
-- -- -- -- -- -- -- -- -- -- -- -- -- -- --
 72
    65
 73
     2
 40
6.25
 49
5.0
 74
     0
 49
-1.25
 74
     0
  0
LTYPE
  5
47BD
330
4717
100
AcDbSymbolTableRecord
100
AcDbLinetypeTableRecord
  2
HIDDEN
 70
     0
  3
Verdeckt
 72
    65
 73
     2
 40
9.525
 49
6.349999999999999
 74
     0
 49
-3.174999999999999
 74
     0
  0
LTYPE
  5
47BE
330
4717
100
AcDbSymbolTableRecord
100
AcDbLinetypeTableRecord
  2
PHANTOM2
 70
     0
  3
Phantom (.5x) ___ _ _ ___ _ _ ___ _ _ ___ _ _
 72
    65
 73
     6
 40
31.75
 49
15.875
 74
     0
 49
-3.174999999999999
 74
     0
 49
3.174999999999999
 74
     0
 49
-3.174999999999999
 74
     0
 49
3.174999999999999
 74
     0
 49
-3.174999999999999
 74
     0
  0
LTYPE
  5
47BF
330
4717
100
AcDbSymbolTableRecord
100
AcDbLinetypeTableRecord
  2
CENTER
 70
     0
  3
Mitte ____ _ ____ _ ____ _ ____ _ ____ _ ____
 72
    65
 73
     4
 40
50.8
 49
31.75
 74
     0
 49
-6.349999999999999
 74
     0
 49
6.349999999999999
 74
     0
 49
-6.349999999999999
 74
     0
  0
LTYPE
  5
47F3
330
4717
100
AcDbSymbolTableRecord
100
AcDbLinetypeTableRecord
  2
AM_ISO02W050
 70
     0
  3
__ __ __ __ __ __ __ __ __ __ __ __ __ __ __
 72
    65
 73
     2
 40
7.5
 49
6.0
 74
     0
 49
-1.5
 74
     0
  0
LTYPE
  5
47F4
330
4717
100
AcDbSymbolTableRecord
100
AcDbLinetypeTableRecord
  2
AM_ISO08W050
 70
     0
  3
____ . ____ . ____ . ____ . ____ . ____ . ____
 72
    65
 73
     4
 40
18.0
 49
12.0
 74
     0
 49
-1.5
 74
     0
 49
3.0
 74
     0
 49
-1.5
 74
     0
  0
LTYPE
  5
47F5
330
4717
100
AcDbSymbolTableRecord
100
AcDbLinetypeTableRecord
  2
AM_ISO09W050
 70
     0
  3
_____ . . _____ . . _____ . . ____ .. ____
 72
    65
 73
     6
 40
22.5
 49
12.0
 74
     0
 49
-1.5
 74
     0
 49
3.0
 74
     0
 49
-1.5
 74
     0
 49
3.0
 74
     0
 49
-1.5
 74
     0
  0
LTYPE
  5
47F6
330
4717
100
AcDbSymbolTableRecord
100
AcDbLinetypeTableRecord
  2
Amconstr
 70
     0
  3
_______________________
 72
    65
 73
     2
 40
9999.0
 49
9999.0
 74
     0
 49
0.0
 74
     0
  0
LTYPE
  5
47F7
330
4717
100
AcDbSymbolTableRecord
100
AcDbLinetypeTableRecord
  2
AM_ISO08W050x2
 70
     0
  3
__ . __ . __ . __ . __ . __
 72
    65
 73
     4
 40
9.0
 49
6.0
 74
     0
 49
-0.75
 74
     0
 49
1.5
 74
     0
 49
-0.75
 74
     0
  0
LTYPE
  5
47F8
330
4717
100
AcDbSymbolTableRecord
100
AcDbLinetypeTableRecord
  2
AM_ISO02W050x2
 70
     0
  3
 _ _ _ _ _ _ _ _ _ _ _ _
 72
    65
 73
     2
 40
3.75
 49
3.0
 74
     0
 49
-0.75
 74
     0
  0
LTYPE
  5
47FB
330
4717
100
AcDbSymbolTableRecord
100
AcDbLinetypeTableRecord
  2
Amzigzag
 70
     0
  3
/\/-/\/-/\/-/\/-/\/-/\/
 72
    65
 73
     2
 40
11.0001
 49
0.0001
 74
     4
 75
   136
340
47FA
 46
0.04
 50
0.0
 44
0.0
 45
0.0
 49
-11.0
 74
     0
  0
LTYPE
  5
47FC
330
4717
100
AcDbSymbolTableRecord
100
AcDbLinetypeTableRecord
  2
AM_DIN_F_W050
 70
     0
  3
__ __ __ __ __ __ __ __ __ __ __ __ __ __ __
 72
    65
 73
     2
 40
6.25
 49
4.75
 74
     0
 49
-1.5
 74
     0
  0
LTYPE
  5
47FD
330
4717
100
AcDbSymbolTableRecord
100
AcDbLinetypeTableRecord
  2
AM_DIN_G_W050
 70
     0
  3
____ . ____ . ____ . ____ . ____ . ____ . ____
 72
    65
 73
     4
 40
13.75
 49
9.75
 74
     0
 49
-1.5
 74
     0
 49
1.0
 74
     0
 49
-1.5
 74
     0
  0
LTYPE
  5
47FE
330
4717
100
AcDbSymbolTableRecord
100
AcDbLinetypeTableRecord
  2
AM_DIN_K_W050
 70
     0
  3
_____ . . _____ . . _____ . . ____ .. ____
 72
    65
 73
     6
 40
16.25
 49
9.75
 74
     0
 49
-1.5
 74
     0
 49
1.0
 74
     0
 49
-1.5
 74
     0
 49
1.0
 74
     0
 49
-1.5
 74
     0
  0
LTYPE
  5
47FF
330
4717
100
AcDbSymbolTableRecord
100
AcDbLinetypeTableRecord
  2
AM_DIN_G_W050x2
 70
     0
  3
__ . __ . __ . __ . __ . __
 72
    65
 73
     4
 40
6.875
 49
4.75
 74
     0
 49
-0.875
 74
     0
 49
0.375
 74
     0
 49
-0.875
 74
     0
  0
LTYPE
  5
4800
330
4717
100
AcDbSymbolTableRecord
100
AcDbLinetypeTableRecord
  2
AM_DIN_F_W050x2
 70
     0
  3
 _ _ _ _ _ _ _ _ _ _ _ _
 72
    65
 73
     2
 40
3.125
 49
2.25
 74
     0
 49
-0.875
 74
     0
  0
LTYPE
  5
480F
330
4717
100
AcDbSymbolTableRecord
100
AcDbLinetypeTableRecord
  2
ACDINWELD
 70
     0
  3
_ _ _ _ _
 72
    65
 73
     2
 40
2.0
 49
2.0
 74
     0
 49
-1.0
 74
     0
  0
LTYPE
  5
4810
330
4717
100
AcDbSymbolTableRecord
100
AcDbLinetypeTableRecord
  2
ACDINTGB
 70
     0
  3
__ . . __ . .
 72
    65
 73
     6
 40
9.0
 49
4.0
 74
     0
 49
-1.0
 74
     0
 49
1.0
 74
     0
 49
-1.0
 74
     0
 49
1.0
 74
     0
 49
-1.0
 74
     0
  0
LTYPE
  5
4811
330
4717
100
AcDbSymbolTableRecord
100
AcDbLinetypeTableRecord
  2
ACDINTGL
 70
     0
  3
_ _ _ _ _
 72
    65
 73
     2
 40
3.0
 49
2.0
 74
     0
 49
-1.0
 74
     0
  0
ENDTAB
  0
TABLE
  2
LAYER
  5
4714
330
0
100
AcDbSymbolTable
 70
     7
  0
LAYER
  5
4720
330
4714
100
AcDbSymbolTableRecord
100
AcDbLayerTableRecord
  2
0
 70
     0
 62
     7
  6
CONTINUOUS
370
    -3
390
4781
  0
LAYER
  5
4767
330
4714
100
AcDbSymbolTableRecord
100
AcDbLayerTableRecord
  2
5
 70
     0
 62
     3
  6
CONTINUOUS
370
    -3
390
4781
  0
LAYER
  5
4768
330
4714
100
AcDbSymbolTableRecord
100
AcDbLayerTableRecord
  2
7
 70
     0
 62
     4
  6
GEN7
370
    -3
390
4781
  0
LAYER
  5
4769
330
4714
100
AcDbSymbolTableRecord
100
AcDbLayerTableRecord
  2
8
 70
     0
 62
     1
  6
CONTINUOUS
370
    -3
390
4781
  0
LAYER
  5
476A
330
4714
100
AcDbSymbolTableRecord
100
AcDbLayerTableRecord
  2
7A
 70
     0
 62
     4
  6
GEN7A
370
    -3
390
4781
  0
LAYER
  5
476C
330
4714
100
AcDbSymbolTableRecord
100
AcDbLayerTableRecord
  2
DEFPOINTS
 70
     0
 62
     7
  6
CONTINUOUS
290
     0
370
    -3
390
4781
  0
LAYER
  5
4770
330
4714
100
AcDbSymbolTableRecord
100
AcDbLayerTableRecord
  2
3
 70
     0
 62
     6
  6
GEN3
370
    -3
390
4781
  0
ENDTAB
  0
TABLE
  2
STYLE
  5
4715
330
0
100
AcDbSymbolTable
 70
     4
  0
STYLE
  5
4721
330
4715
100
AcDbSymbolTableRecord
100
AcDbTextStyleTableRecord
  2
STANDARD
 70
     0
 40
0.0
 41
1.0
 50
0.0
 71
     0
 42
17.5
  3
ISOCP.SHX
  4

  0
STYLE
  5
47FA
330
4715
100
AcDbSymbolTableRecord
100
AcDbTextStyleTableRecord
  2

 70
     1
 40
0.0
 41
1.0
 50
0.0
 71
     0
 42
17.5
  3
genltshp.shx
  4

  0
STYLE
  5
4801
330
4715
100
AcDbSymbolTableRecord
100
AcDbTextStyleTableRecord
  2
ACDINTS
 70
     0
 40
1.0
 41
1.0
 50
0.0
 71
     0
 42
17.5
  3
isocp.shx
  4

  0
STYLE
  5
480E
330
4715
100
AcDbSymbolTableRecord
100
AcDbTextStyleTableRecord
  2
ACDINGDT
 70
     0
 40
0.0
 41
1.0
 50
0.0
 71
     0
 42
17.5
  3
AMGDT
  4

  0
ENDTAB
  0
TABLE
  2
VIEW
  5
4718
330
0
100
AcDbSymbolTable
 70
     0
  0
ENDTAB
  0
TABLE
  2
UCS
  5
4719
330
0
100
AcDbSymbolTable
 70
     0
  0
ENDTAB
  0
TABLE
  2
APPID
  5
471B
330
0
100
AcDbSymbolTable
 70
    38
  0
APPID
  5
4722
330
471B
100
AcDbSymbolTableRecord
100
AcDbRegAppTableRecord
  2
ACAD
 70
     0
  0
APPID
  5
4747
330
471B
100
AcDbSymbolTableRecord
100
AcDbRegAppTableRecord
  2
GENIUS_VERSION2
 70
     0
  0
APPID
  5
4748
330
471B
100
AcDbSymbolTableRecord
100
AcDbRegAppTableRecord
  2
GENIUS_GENOENT_13
 70
     0
  0
APPID
  5
4749
330
471B
100
AcDbSymbolTableRecord
100
AcDbRegAppTableRecord
  2
GENIUS_GENOBJ_13
 70
     0
  0
APPID
  5
474A
330
471B
100
AcDbSymbolTableRecord
100
AcDbRegAppTableRecord
  2
GENIUS_GENODEF_13
 70
     0
  0
APPID
  5
474B
330
471B
100
AcDbSymbolTableRecord
100
AcDbRegAppTableRecord
  2
GENIUS_GENOLIS_13
 70
     0
  0
APPID
  5
474C
330
471B
100
AcDbSymbolTableRecord
100
AcDbRegAppTableRecord
  2
GENIUS_GENOREF_13
 70
     0
  0
APPID
  5
474D
330
471B
100
AcDbSymbolTableRecord
100
AcDbRegAppTableRecord
  2
GENIUS_GENOBJ-N-TIT_13
 70
     0
  0
APPID
  5
474E
330
471B
100
AcDbSymbolTableRecord
100
AcDbRegAppTableRecord
  2
GENIUS_GENTITLE_13
 70
     0
  0
APPID
  5
474F
330
471B
100
AcDbSymbolTableRecord
100
AcDbRegAppTableRecord
  2
GENIUS_GENZVEED_13
 70
     0
  0
APPID
  5
4750
330
471B
100
AcDbSymbolTableRecord
100
AcDbRegAppTableRecord
  2
GENIUS_GENOBJ-N-CEN_13
 70
     0
  0
APPID
  5
4751
330
471B
100
AcDbSymbolTableRecord
100
AcDbRegAppTableRecord
  2
GENIUS_GENOBJ-N-HTC_13
 70
     0
  0
APPID
  5
4752
330
471B
100
AcDbSymbolTableRecord
100
AcDbRegAppTableRecord
  2
GENIUS_GENHATCH_13
 70
     0
  0
APPID
  5
4753
330
471B
100
AcDbSymbolTableRecord
100
AcDbRegAppTableRecord
  2
GENIUS_GENOBJ-N-FIL_13
 70
     0
  0
APPID
  5
4754
330
471B
100
AcDbSymbolTableRecord
100
AcDbRegAppTableRecord
  2
GENIUS_GENCFG_13
 70
     0
1001
GENIUS_GENCFG0_13
1000
GEN@INFO_POS@XLATE
1001
GENIUS_GENCFG1_13
1000
GEN@INFO_POS
1001
GENIUS_GENCFG2_13
1000
GEN@LAYER@DEFS
1001
GENIUS_GENCFG3_13
1000
GEN@LAYER@ENTSORT
1001
GENIUS_GENCFG4_13
1000
GEN
1001
GENIUS_GEVCFG0_13
1000
GEV
  0
APPID
  5
4755
330
471B
100
AcDbSymbolTableRecord
100
AcDbRegAppTableRecord
  2
GENIUS_GEVCFG0_13
 70
     0
1001
GENIUS_GENCFG_13
1071
1043414125
1000
4755
1000
GEV
1070
     2
1000
GenCfgObject
1000
GenCfgShort
1000
VED
1070
     0
1002
{
1002
}
1000
PartProto
1070
     1
1070
     1
1002
{
1002
}
  0
APPID
  5
4756
330
471B
100
AcDbSymbolTableRecord
100
AcDbRegAppTableRecord
  2
GENIUS_GENCFG0_13
 70
     0
1001
GENIUS_GENCFG_13
1071
1043414125
1000
4756
1000
GEN@INFO_POS@XLATE
1070
     7
1000
GenCfgObject
1000
GenCfgShort
1000
GenCfgReal
1000
GenCfgBool
1000
GenCfgString
1000
GenCfgDim
1000
GenCfgAttrInf
1000
INFOPOINTS
1070
     0
1002
{
1000
GENINF14
1070
     0
1002
{
1000
2GENINF
1070
     4
1000
2
1002
{
1002
}
1000
5GENINF
1070
     4
1000
5
1002
{
1002
}
1000
7GENINF
1070
     4
1000
7
1002
{
1002
}
1000
9GENINF
1070
     4
1000
9
1002
{
1002
}
1000
11GENINF
1070
     4
1000
11
1002
{
1002
}
1000
14GENINF
1070
     4
1000
14
1002
{
1002
}
1002
}
1000
GENINF13
1070
     0
1002
{
1000
2GENINF
1070
     4
1000
2
1002
{
1002
}
1000
3GENINF
1070
     4
1000
3
1002
{
1002
}
1000
4GENINF
1070
     4
1000
4
1002
{
1002
}
1000
5GENINF
1070
     4
1000
5
1002
{
1002
}
1000
6GENINF
1070
     4
1000
6
1002
{
1002
}
1000
7GENINF
1070
     4
1000
7
1002
{
1002
}
1000
8GENINF
1070
     4
1000
8
1002
{
1002
}
1000
9GENINF
1070
     4
1000
9
1002
{
1002
}
1000
10GENINF
1070
     4
1000
10
1002
{
1002
}
1000
11GENINF
1070
     4
1000
11
1002
{
1002
}
1000
12GENINF
1070
     4
1000
12
1002
{
1002
}
1000
13GENINF
1070
     4
1000
13
1002
{
1002
}
1000
14GENINF
1070
     4
1000
14
1002
{
1002
}
1000
15GENINF
1070
     4
1000
15
1002
{
1002
}
1000
16GENINF
1070
     4
1000
16
1002
{
1002
}
1000
17GENINF
1070
     4
1000
17
1002
{
1002
}
1000
18GENINF
1070
     4
1000
18
1002
{
1002
}
1000
19GENINF
1070
     4
1000
19
1002
{
1002
}
1000
20GENINF
1070
     4
1000
20
1002
{
1002
}
1000
21GENINF
1070
     4
1000
21
1002
{
1002
}
1000
22GENINF
1070
     4
1000
22
1002
{
1002
}
1000
23GENINF
1070
     4
1000
23
1002
{
1002
}
1000
24GENINF
1070
     4
1000
24
1002
{
1002
}
1000
0GENINF
1070
     4
1000
0
1002
{
1002
}
1002
}
1000
GENINFO
1070
     0
1002
{
1000
3GENINF
1070
     4
1000
3
1002
{
1002
}
1000
4GENINF
1070
     4
1000
4
1002
{
1002
}
1000
5GENINF
1070
     4
1000
5
1002
{
1002
}
1000
6GENINF
1070
     4
1000
6
1002
{
1002
}
1000
7GENINF
1070
     4
1000
7
1002
{
1002
}
1000
8GENINF
1070
     4
1000
8
1002
{
1002
}
1000
9GENINF
1070
     4
1000
9
1002
{
1002
}
1000
10GENINF
1070
     4
1000
10
1002
{
1002
}
1000
11GENINF
1070
     4
1000
11
1002
{
1002
}
1000
12GENINF
1070
     4
1000
12
1002
{
1002
}
1000
13GENINF
1070
     4
1000
13
1002
{
1002
}
1000
14GENINF
1070
     4
1000
14
1002
{
1002
}
1000
15GENINF
1070
     4
1000
15
1002
{
1002
}
1000
16GENINF
1070
     4
1000
16
1002
{
1002
}
1000
17GENINF
1070
     4
1000
17
1002
{
1002
}
1000
18GENINF
1070
     4
1000
18
1002
{
1002
}
1000
19GENINF
1070
     4
1000
19
1002
{
1002
}
1000
20GENINF
1070
     4
1000
20
1002
{
1002
}
1000
21GENINF
1070
     4
1000
21
1002
{
1002
}
1000
22GENINF
1070
     4
1000
22
1002
{
1002
}
1002
}
1000
DININFO
1070
     0
1002
{
1000
ST-NAME1
1070
     4
1000
5
1002
{
1002
}
1000
ST-NAME2
1070
     4
1000
6
1002
{
1002
}
1000
ST-NORM1
1070
     4
1000
7
1002
{
1002
}
1000
ST-NORM2
1070
     4
1000
8
1002
{
1002
}
1000
ST-MAT1
1070
     4
1000
9
1002
{
1002
}
1000
ST-MAT2
1070
     4
1000
10
1002
{
1002
}
1002
}
1002
}
1000
POS_NUMBERS
1070
     0
1002
{
1000
GENPOS14
1070
     0
1002
{
1000
1GENPOS
1070
     4
1000
1
1002
{
1002
}
1000
2GENPOS
1070
     4
1000
2
1002
{
1002
}
1000
5GENPOS
1070
     4
1000
5
1002
{
1002
}
1000
7GENPOS
1070
     4
1000
7
1002
{
1002
}
1000
9GENPOS
1070
     4
1000
9
1002
{
1002
}
1000
11GENPOS
1070
     4
1000
11
1002
{
1002
}
1000
14GENPOS
1070
     4
1000
14
1002
{
1002
}
1002
}
1000
GENPOS13
1070
     0
1002
{
1000
1GENPOS
1070
     4
1000
1
1002
{
1002
}
1000
2GENPOS
1070
     4
1000
2
1002
{
1002
}
1000
3GENPOS
1070
     4
1000
3
1002
{
1002
}
1000
4GENPOS
1070
     4
1000
4
1002
{
1002
}
1000
5GENPOS
1070
     4
1000
5
1002
{
1002
}
1000
6GENPOS
1070
     4
1000
6
1002
{
1002
}
1000
7GENPOS
1070
     4
1000
7
1002
{
1002
}
1000
8GENPOS
1070
     4
1000
8
1002
{
1002
}
1000
9GENPOS
1070
     4
1000
9
1002
{
1002
}
1000
10GENPOS
1070
     4
1000
10
1002
{
1002
}
1000
11GENPOS
1070
     4
1000
11
1002
{
1002
}
1000
12GENPOS
1070
     4
1000
12
1002
{
1002
}
1000
13GENPOS
1070
     4
1000
13
1002
{
1002
}
1000
14GENPOS
1070
     4
1000
14
1002
{
1002
}
1000
15GENPOS
1070
     4
1000
15
1002
{
1002
}
1000
16GENPOS
1070
     4
1000
16
1002
{
1002
}
1000
17GENPOS
1070
     4
1000
17
1002
{
1002
}
1000
18GENPOS
1070
     4
1000
18
1002
{
1002
}
1000
19GENPOS
1070
     4
1000
19
1002
{
1002
}
1000
20GENPOS
1070
     4
1000
20
1002
{
1002
}
1000
21GENPOS
1070
     4
1000
21
1002
{
1002
}
1000
22GENPOS
1070
     4
1000
22
1002
{
1002
}
1000
23GENPOS
1070
     4
1000
23
1002
{
1002
}
1000
24GENPOS
1070
     4
1000
24
1002
{
1002
}
1000
0GENPOS
1070
     4
1000
0
1002
{
1002
}
1002
}
1000
GENPOS
1070
     0
1002
{
1000
1GENPOS
1070
     4
1000
1
1002
{
1002
}
1000
2GENPOS
1070
     4
1000
2
1002
{
1002
}
1000
3GENPOS
1070
     4
1000
3
1002
{
1002
}
1000
4GENPOS
1070
     4
1000
4
1002
{
1002
}
1000
5GENPOS
1070
     4
1000
5
1002
{
1002
}
1000
6GENPOS
1070
     4
1000
6
1002
{
1002
}
1000
7GENPOS
1070
     4
1000
7
1002
{
1002
}
1000
8GENPOS
1070
     4
1000
8
1002
{
1002
}
1000
9GENPOS
1070
     4
1000
9
1002
{
1002
}
1000
10GENPOS
1070
     4
1000
10
1002
{
1002
}
1000
11GENPOS
1070
     4
1000
11
1002
{
1002
}
1000
12GENPOS
1070
     4
1000
12
1002
{
1002
}
1000
13GENPOS
1070
     4
1000
13
1002
{
1002
}
1000
14GENPOS
1070
     4
1000
14
1002
{
1002
}
1000
15GENPOS
1070
     4
1000
15
1002
{
1002
}
1000
16GENPOS
1070
     4
1000
16
1002
{
1002
}
1000
17GENPOS
1070
     4
1000
17
1002
{
1002
}
1000
18GENPOS
1070
     4
1000
18
1002
{
1002
}
1000
19GENPOS
1070
     4
1000
19
1002
{
1002
}
1000
20GENPOS
1070
     4
1000
20
1002
{
1002
}
1000
21GENPOS
1070
     4
1000
21
1002
{
1002
}
1000
22GENPOS
1070
     4
1000
22
1002
{
1002
}
1000
23GENPOS
1070
     4
1000
23
1002
{
1002
}
1002
}
1000
DIN985
1070
     0
1002
{
1000
POSITION
1070
     4
1000
1
1002
{
1002
}
1000
MENGE
1070
     4
1000
2
1002
{
1002
}
1000
BLATT
1070
     4
1000
3
1002
{
1002
}
1000
BENENN
1070
     4
1000
5
1002
{
1002
}
1000
BENENN2
1070
     4
1000
6
1002
{
1002
}
1000
NORM
1070
     4
1000
7
1002
{
1002
}
1000
NORM2
1070
     4
1000
8
1002
{
1002
}
1000
WERKSTOFF
1070
     4
1000
9
1002
{
1002
}
1000
WERKSTOFF2
1070
     4
1000
10
1002
{
1002
}
1002
}
1000
DIN986
1070
     0
1002
{
1000
POSITION
1070
     4
1000
1
1002
{
1002
}
1000
MENGE
1070
     4
1000
2
1002
{
1002
}
1000
BLATT
1070
     4
1000
3
1002
{
1002
}
1000
BENENN
1070
     4
1000
5
1002
{
1002
}
1000
BENENN2
1070
     4
1000
6
1002
{
1002
}
1000
NORM
1070
     4
1000
7
1002
{
1002
}
1000
NORM2
1070
     4
1000
8
1002
{
1002
}
1000
WERKSTOFF
1070
     4
1000
9
1002
{
1002
}
1000
WERKSTOFF2
1070
     4
1000
10
1002
{
1002
}
1002
}
1000
DIN987
1070
     0
1002
{
1000
POSITION
1070
     4
1000
1
1002
{
1002
}
1000
MENGE
1070
     4
1000
2
1002
{
1002
}
1000
BLATT
1070
     4
1000
3
1002
{
1002
}
1000
BENENN
1070
     4
1000
5
1002
{
1002
}
1000
BENENN2
1070
     4
1000
6
1002
{
1002
}
1000
NORM
1070
     4
1000
7
1002
{
1002
}
1000
NORM2
1070
     4
1000
8
1002
{
1002
}
1000
WERKSTOFF
1070
     4
1000
9
1002
{
1002
}
1000
WERKSTOFF2
1070
     4
1000
10
1002
{
1002
}
1002
}
1002
}
  0
APPID
  5
4757
330
471B
100
AcDbSymbolTableRecord
100
AcDbRegAppTableRecord
  2
GENIUS_GENCFG1_13
 70
     0
1001
GENIUS_GENCFG_13
1071
1043414125
1000
4757
1000
GEN@INFO_POS
1070
     7
1000
GenCfgObject
1000
GenCfgShort
1000
GenCfgReal
1000
GenCfgBool
1000
GenCfgString
1000
GenCfgDim
1000
GenCfgAttrInf
1000
DescrText
1070
     4
1000
5, ,6, ,7, ,8
1002
{
1002
}
1000
DescrText2
1070
     4
1000
26
1002
{
1002
}
1000
VisibleAttr1
1070
     4
1000
1
1002
{
1002
}
1000
VisibleAttr2
1070
     4
1000
26
1002
{
1002
}
1000
UpdateBlock
1070
     3
1070
     1
1002
{
1002
}
1000
Attrib
1070
     0
1002
{
1000
0
1070
     6
1002
{
1000
Prompt
1070
     4
1000
(genmsg gendwg 103)
1002
{
1002
}
1000
Value
1070
     4
1000

1002
{
1002
}
1000
EditFlag
1070
     1
1070
     0
1002
{
1002
}
1000
PosInDDATTE
1070
     1
1070
    27
1002
{
1002
}
1000
FieldLen
1070
     1
1070
    -1
1002
{
1002
}
1002
}
1000
1
1070
     6
1002
{
1000
Prompt
1070
     4
1000
(genmsg gendwg 31)
1002
{
1002
}
1000
Value
1070
     4
1000
1
1002
{
1002
}
1000
EditFlag
1070
     1
1070
     1
1002
{
1002
}
1000
PosInDDATTE
1070
     1
1070
     1
1002
{
1002
}
1000
FieldLen
1070
     1
1070
    -1
1002
{
1002
}
1002
}
1000
2
1070
     6
1002
{
1000
Prompt
1070
     4
1000
(genmsg gendwg 32)
1002
{
1002
}
1000
Value
1070
     4
1000
1
1002
{
1002
}
1000
EditFlag
1070
     1
1070
     1
1002
{
1002
}
1000
PosInDDATTE
1070
     1
1070
     2
1002
{
1002
}
1000
FieldLen
1070
     1
1070
    -1
1002
{
1002
}
1002
}
1000
3
1070
     6
1002
{
1000
Prompt
1070
     4
1000
(genmsg gendwg 33)
1002
{
1002
}
1000
Value
1070
     4
1000

1002
{
1002
}
1000
EditFlag
1070
     1
1070
     1
1002
{
1002
}
1000
PosInDDATTE
1070
     1
1070
     3
1002
{
1002
}
1000
FieldLen
1070
     1
1070
    -1
1002
{
1002
}
1002
}
1000
4
1070
     6
1002
{
1000
Prompt
1070
     4
1000
(genmsg gendwg 34)
1002
{
1002
}
1000
Value
1070
     4
1000

1002
{
1002
}
1000
EditFlag
1070
     1
1070
     1
1002
{
1002
}
1000
PosInDDATTE
1070
     1
1070
     4
1002
{
1002
}
1000
FieldLen
1070
     1
1070
    -1
1002
{
1002
}
1002
}
1000
5
1070
     6
1002
{
1000
Prompt
1070
     4
1000
(genmsg gendwg 35)
1002
{
1002
}
1000
Value
1070
     4
1000

1002
{
1002
}
1000
EditFlag
1070
     1
1070
     1
1002
{
1002
}
1000
PosInDDATTE
1070
     1
1070
     5
1002
{
1002
}
1000
FieldLen
1070
     1
1070
    -1
1002
{
1002
}
1002
}
1000
6
1070
     6
1002
{
1000
Prompt
1070
     4
1000
(genmsg gendwg 36)
1002
{
1002
}
1000
Value
1070
     4
1000

1002
{
1002
}
1000
EditFlag
1070
     1
1070
     1
1002
{
1002
}
1000
PosInDDATTE
1070
     1
1070
     6
1002
{
1002
}
1000
FieldLen
1070
     1
1070
    -1
1002
{
1002
}
1002
}
1000
7
1070
     6
1002
{
1000
Prompt
1070
     4
1000
(genmsg gendwg 37)
1002
{
1002
}
1000
Value
1070
     4
1000

1002
{
1002
}
1000
EditFlag
1070
     1
1070
     1
1002
{
1002
}
1000
PosInDDATTE
1070
     1
1070
     7
1002
{
1002
}
1000
FieldLen
1070
     1
1070
    -1
1002
{
1002
}
1002
}
1000
8
1070
     6
1002
{
1000
Prompt
1070
     4
1000
(genmsg gendwg 38)
1002
{
1002
}
1000
Value
1070
     4
1000

1002
{
1002
}
1000
EditFlag
1070
     1
1070
     1
1002
{
1002
}
1000
PosInDDATTE
1070
     1
1070
     8
1002
{
1002
}
1000
FieldLen
1070
     1
1070
    -1
1002
{
1002
}
1002
}
1000
9
1070
     6
1002
{
1000
Prompt
1070
     4
1000
(genmsg gendwg 39)
1002
{
1002
}
1000
Value
1070
     4
1000

1002
{
1002
}
1000
EditFlag
1070
     1
1070
     1
1002
{
1002
}
1000
PosInDDATTE
1070
     1
1070
     9
1002
{
1002
}
1000
FieldLen
1070
     1
1070
    -1
1002
{
1002
}
1002
}
1000
10
1070
     6
1002
{
1000
Prompt
1070
     4
1000
(genmsg gendwg 40)
1002
{
1002
}
1000
Value
1070
     4
1000

1002
{
1002
}
1000
EditFlag
1070
     1
1070
     1
1002
{
1002
}
1000
PosInDDATTE
1070
     1
1070
    10
1002
{
1002
}
1000
FieldLen
1070
     1
1070
    -1
1002
{
1002
}
1002
}
1000
11
1070
     6
1002
{
1000
Prompt
1070
     4
1000
(genmsg gendwg 41)
1002
{
1002
}
1000
Value
1070
     4
1000

1002
{
1002
}
1000
EditFlag
1070
     1
1070
     1
1002
{
1002
}
1000
PosInDDATTE
1070
     1
1070
    11
1002
{
1002
}
1000
FieldLen
1070
     1
1070
    -1
1002
{
1002
}
1002
}
1000
12
1070
     6
1002
{
1000
Prompt
1070
     4
1000
(genmsg gendwg 42)
1002
{
1002
}
1000
Value
1070
     4
1000

1002
{
1002
}
1000
EditFlag
1070
     1
1070
     1
1002
{
1002
}
1000
PosInDDATTE
1070
     1
1070
    12
1002
{
1002
}
1000
FieldLen
1070
     1
1070
    -1
1002
{
1002
}
1002
}
1000
13
1070
     6
1002
{
1000
Prompt
1070
     4
1000
(genmsg gendwg 43)
1002
{
1002
}
1000
Value
1070
     4
1000

1002
{
1002
}
1000
EditFlag
1070
     1
1070
     1
1002
{
1002
}
1000
PosInDDATTE
1070
     1
1070
    13
1002
{
1002
}
1000
FieldLen
1070
     1
1070
    -1
1002
{
1002
}
1002
}
1000
14
1070
     6
1002
{
1000
Prompt
1070
     4
1000
(genmsg gendwg 44)
1002
{
1002
}
1000
Value
1070
     4
1000

1002
{
1002
}
1000
EditFlag
1070
     1
1070
     1
1002
{
1002
}
1000
PosInDDATTE
1070
     1
1070
    14
1002
{
1002
}
1000
FieldLen
1070
     1
1070
    -1
1002
{
1002
}
1002
}
1000
15
1070
     6
1002
{
1000
Prompt
1070
     4
1000
(genmsg gendwg 45)
1002
{
1002
}
1000
Value
1070
     4
1000

1002
{
1002
}
1000
EditFlag
1070
     1
1070
     1
1002
{
1002
}
1000
PosInDDATTE
1070
     1
1070
    15
1002
{
1002
}
1000
FieldLen
1070
     1
1070
    -1
1002
{
1002
}
1002
}
1000
16
1070
     6
1002
{
1000
Prompt
1070
     4
1000
(genmsg gendwg 46)
1002
{
1002
}
1000
Value
1070
     4
1000

1002
{
1002
}
1000
EditFlag
1070
     1
1070
     1
1002
{
1002
}
1000
PosInDDATTE
1070
     1
1070
    16
1002
{
1002
}
1000
FieldLen
1070
     1
1070
    -1
1002
{
1002
}
1002
}
1000
17
1070
     6
1002
{
1000
Prompt
1070
     4
1000
(genmsg gendwg 47)
1002
{
1002
}
1000
Value
1070
     4
1000

1002
{
1002
}
1000
EditFlag
1070
     1
1070
     1
1002
{
1002
}
1000
PosInDDATTE
1070
     1
1070
    17
1002
{
1002
}
1000
FieldLen
1070
     1
1070
    -1
1002
{
1002
}
1002
}
1000
18
1070
     6
1002
{
1000
Prompt
1070
     4
1000
(genmsg gendwg 48)
1002
{
1002
}
1000
Value
1070
     4
1000

1002
{
1002
}
1000
EditFlag
1070
     1
1070
     1
1002
{
1002
}
1000
PosInDDATTE
1070
     1
1070
    18
1002
{
1002
}
1000
FieldLen
1070
     1
1070
    -1
1002
{
1002
}
1002
}
1000
19
1070
     6
1002
{
1000
Prompt
1070
     4
1000
(genmsg gendwg 99)
1002
{
1002
}
1000
Value
1070
     4
1000

1002
{
1002
}
1000
EditFlag
1070
     1
1070
     1
1002
{
1002
}
1000
PosInDDATTE
1070
     1
1070
    19
1002
{
1002
}
1000
FieldLen
1070
     1
1070
    -1
1002
{
1002
}
1002
}
1000
20
1070
     6
1002
{
1000
Prompt
1070
     4
1000
(genmsg gendwg 100)
1002
{
1002
}
1000
Value
1070
     4
1000

1002
{
1002
}
1000
EditFlag
1070
     1
1070
     1
1002
{
1002
}
1000
PosInDDATTE
1070
     1
1070
    20
1002
{
1002
}
1000
FieldLen
1070
     1
1070
    -1
1002
{
1002
}
1002
}
1000
21
1070
     6
1002
{
1000
Prompt
1070
     4
1000
(genmsg gendwg 101)
1002
{
1002
}
1000
Value
1070
     4
1000

1002
{
1002
}
1000
EditFlag
1070
     1
1070
     1
1002
{
1002
}
1000
PosInDDATTE
1070
     1
1070
    21
1002
{
1002
}
1000
FieldLen
1070
     1
1070
    -1
1002
{
1002
}
1002
}
1000
22
1070
     6
1002
{
1000
Prompt
1070
     4
1000
(genmsg gendwg 102)
1002
{
1002
}
1000
Value
1070
     4
1000

1002
{
1002
}
1000
EditFlag
1070
     1
1070
     1
1002
{
1002
}
1000
PosInDDATTE
1070
     1
1070
    22
1002
{
1002
}
1000
FieldLen
1070
     1
1070
    -1
1002
{
1002
}
1002
}
1000
23
1070
     6
1002
{
1000
Prompt
1070
     4
1000
(genmsg gendwg 30)
1002
{
1002
}
1000
Value
1070
     4
1000

1002
{
1002
}
1000
EditFlag
1070
     1
1070
     1
1002
{
1002
}
1000
PosInDDATTE
1070
     1
1070
    23
1002
{
1002
}
1000
FieldLen
1070
     1
1070
    -1
1002
{
1002
}
1002
}
1000
24
1070
     6
1002
{
1000
Prompt
1070
     4
1000
(genmsg gendwg 104)
1002
{
1002
}
1000
Value
1070
     4
1000

1002
{
1002
}
1000
EditFlag
1070
     1
1070
     1
1002
{
1002
}
1000
PosInDDATTE
1070
     1
1070
    24
1002
{
1002
}
1000
FieldLen
1070
     1
1070
    -1
1002
{
1002
}
1002
}
1000
25
1070
     6
1002
{
1000
Prompt
1070
     4
1000
(genmsg gendwg 105)
1002
{
1002
}
1000
Value
1070
     4
1000

1002
{
1002
}
1000
EditFlag
1070
     1
1070
     1
1002
{
1002
}
1000
PosInDDATTE
1070
     1
1070
    25
1002
{
1002
}
1000
FieldLen
1070
     1
1070
    -1
1002
{
1002
}
1002
}
1000
26
1070
     6
1002
{
1000
Prompt
1070
     4
1000
(genmsg gendwg 106)
1002
{
1002
}
1000
Value
1070
     4
1000

1002
{
1002
}
1000
EditFlag
1070
     1
1070
     1
1002
{
1002
}
1000
PosInDDATTE
1070
     1
1070
    26
1002
{
1002
}
1000
FieldLen
1070
     1
1070
    -1
1002
{
1002
}
1002
}
1000
27
1070
     6
1002
{
1000
Prompt
1070
     4
1000
(genmsg gendwg 109)
1002
{
1002
}
1000
Value
1070
     4
1000

1002
{
1002
}
1000
EditFlag
1070
     1
1070
     2
1002
{
1002
}
1000
PosInDDATTE
1070
     1
1070
    27
1002
{
1002
}
1000
FieldLen
1070
     1
1070
    -1
1002
{
1002
}
1002
}
1002
}
1000
Xlate
1070
     0
1002
{
1000
>
1002
}
  0
APPID
  5
4758
330
471B
100
AcDbSymbolTableRecord
100
AcDbRegAppTableRecord
  2
GENIUS_GENCFG2_13
 70
     0
1001
GENIUS_GENCFG_13
1071
1043414125
1000
4758
1000
GEN@LAYER@DEFS
1070
     9
1000
GenCfgObject
1000
GenCfgShort
1000
GenCfgReal
1000
GenCfgBool
1000
GenCfgString
1000
GenCfgDim
1000
GenCfgAttrInf
1000
GenCfgLaySection
1000
GenCfgLayer
1000
Basic
1070
     0
1002
{
1000
0
1070
     8
1000
0
1002
{
1000
Color
1070
     1
1070
     7
1002
{
1002
}
1000
LType
1070
     4
1000
CONTINUOUS
1002
{
1002
}
1000
Base
1070
     3
1070
     0
1002
{
1002
}
1002
}
1000
1
1070
     8
1000
1
1002
{
1000
Color
1070
     1
1070
    14
1002
{
1002
}
1000
LType
1070
     4
1000
CONTINUOUS
1002
{
1002
}
1000
Base
1070
     3
1070
     0
1002
{
1002
}
1002
}
1000
2
1070
     8
1000
2
1002
{
1000
Color
1070
     1
1070
     5
1002
{
1002
}
1000
LType
1070
     4
1000
CONTINUOUS
1002
{
1002
}
1000
Base
1070
     3
1070
     0
1002
{
1002
}
1002
}
1000
3
1070
     8
1000
3
1002
{
1000
Color
1070
     1
1070
     6
1002
{
1002
}
1000
LType
1070
     4
1000
GEN3
1002
{
1002
}
1000
Base
1070
     3
1070
     0
1002
{
1002
}
1002
}
1000
4
1070
     8
1000
4
1002
{
1000
Color
1070
     1
1070
     3
1002
{
1002
}
1000
LType
1070
     4
1000
CONTINUOUS
1002
{
1002
}
1000
Base
1070
     3
1070
     0
1002
{
1002
}
1002
}
1000
5
1070
     8
1000
5
1002
{
1000
Color
1070
     1
1070
     3
1002
{
1002
}
1000
LType
1070
     4
1000
CONTINUOUS
1002
{
1002
}
1000
Base
1070
     3
1070
     0
1002
{
1002
}
1002
}
1000
6
1070
     8
1000
6
1002
{
1000
Color
1070
     1
1070
     2
1002
{
1002
}
1000
LType
1070
     4
1000
CONTINUOUS
1002
{
1002
}
1000
Base
1070
     3
1070
     0
1002
{
1002
}
1002
}
1000
7
1070
     8
1000
7
1002
{
1000
Color
1070
     1
1070
     4
1002
{
1002
}
1000
LType
1070
     4
1000
GEN7
1002
{
1002
}
1000
Base
1070
     3
1070
     0
1002
{
1002
}
1002
}
1000
8
1070
     8
1000
8
1002
{
1000
Color
1070
     1
1070
     1
1002
{
1002
}
1000
LType
1070
     4
1000
CONTINUOUS
1002
{
1002
}
1000
Base
1070
     3
1070
     0
1002
{
1002
}
1002
}
1000
3A
1070
     8
1000
3A
1002
{
1000
Color
1070
     1
1070
     6
1002
{
1002
}
1000
LType
1070
     4
1000
GEN3A
1002
{
1002
}
1000
Base
1070
     3
1070
     0
1002
{
1002
}
1002
}
1000
7A
1070
     8
1000
7A
1002
{
1000
Color
1070
     1
1070
     4
1002
{
1002
}
1000
LType
1070
     4
1000
GEN7A
1002
{
1002
}
1000
Base
1070
     3
1070
     0
1002
{
1002
}
1002
}
1000
2A
1070
     8
1000
2A
1002
{
1000
Color
1070
     1
1070
     7
1002
{
1002
}
1000
LType
1070
     4
1000
GEN7
1002
{
1002
}
1000
Base
1070
     3
1070
     0
1002
{
1002
}
1002
}
1000
4A
1070
     8
1000
4A
1002
{
1000
Color
1070
     1
1070
     3
1002
{
1002
}
1000
LType
1070
     4
1000
GEN4A
1002
{
1002
}
1000
Base
1070
     3
1070
     0
1002
{
1002
}
1002
}
1000
9
1070
     8
1000
9
1002
{
1000
Color
1070
     1
1070
   253
1002
{
1002
}
1000
LType
1070
     4
1000
CONTINUOUS
1002
{
1002
}
1000
Base
1070
     3
1070
     0
1002
{
1002
}
1002
}
1000
IP
1070
     8
1000
IP
1002
{
1000
Color
1070
     1
1070
     7
1002
{
1002
}
1000
LType
1070
     4
1000
CONTINUOUS
1002
{
1002
}
1000
Base
1070
     3
1070
     0
1002
{
1002
}
1002
}
1002
}
1000
Standard
1070
     0
1002
{
1000
0N
1070
     8
1000
0N
1002
{
1000
Color
1070
     1
1070
     7
1002
{
1002
}
1000
LType
1070
     4
1000
CONTINUOUS
1002
{
1002
}
1000
Base
1070
     3
1070
     0
1002
{
1002
}
1002
}
1000
1N
1070
     8
1000
1N
1002
{
1000
Color
1070
     1
1070
    14
1002
{
1002
}
1000
LType
1070
     4
1000
CONTINUOUS
1002
{
1002
}
1000
Base
1070
     3
1070
     0
1002
{
1002
}
1002
}
1000
2N
1070
     8
1000
2N
1002
{
1000
Color
1070
     1
1070
     5
1002
{
1002
}
1000
LType
1070
     4
1000
CONTINUOUS
1002
{
1002
}
1000
Base
1070
     3
1070
     0
1002
{
1002
}
1002
}
1000
3N
1070
     8
1000
3N
1002
{
1000
Color
1070
     1
1070
     6
1002
{
1002
}
1000
LType
1070
     4
1000
GEN3
1002
{
1002
}
1000
Base
1070
     3
1070
     0
1002
{
1002
}
1002
}
1000
4N
1070
     8
1000
4N
1002
{
1000
Color
1070
     1
1070
     3
1002
{
1002
}
1000
LType
1070
     4
1000
CONTINUOUS
1002
{
1002
}
1000
Base
1070
     3
1070
     0
1002
{
1002
}
1002
}
1000
5N
1070
     8
1000
5N
1002
{
1000
Color
1070
     1
1070
     3
1002
{
1002
}
1000
LType
1070
     4
1000
CONTINUOUS
1002
{
1002
}
1000
Base
1070
     3
1070
     0
1002
{
1002
}
1002
}
1000
6N
1070
     8
1000
6N
1002
{
1000
Color
1070
     1
1070
     2
1002
{
1002
}
1000
LType
1070
     4
1000
CONTINUOUS
1002
{
1002
}
1000
Base
1070
     3
1070
     0
1002
{
1002
}
1002
}
1000
7N
1070
     8
1000
7N
1002
{
1000
Color
1070
     1
1070
     4
1002
{
1002
}
1000
LType
1070
     4
1000
GEN7
1002
{
1002
}
1000
Base
1070
     3
1070
     0
1002
{
1002
}
1002
}
1000
8N
1070
     8
1000
8N
1002
{
1000
Color
1070
     1
1070
     1
1002
{
1002
}
1000
LType
1070
     4
1000
CONTINUOUS
1002
{
1002
}
1000
Base
1070
     3
1070
     0
1002
{
1002
}
1002
}
1000
3AN
1070
     8
1000
3AN
1002
{
1000
Color
1070
     1
1070
     6
1002
{
1002
}
1000
LType
1070
     4
1000
GEN3A
1002
{
1002
}
1000
Base
1070
     3
1070
     0
1002
{
1002
}
1002
}
1000
7AN
1070
     8
1000
7AN
1002
{
1000
Color
1070
     1
1070
     4
1002
{
1002
}
1000
LType
1070
     4
1000
GEN7A
1002
{
1002
}
1000
Base
1070
     3
1070
     0
1002
{
1002
}
1002
}
1000
2AN
1070
     8
1000
2AN
1002
{
1000
Color
1070
     1
1070
     7
1002
{
1002
}
1000
LType
1070
     4
1000
GEN7
1002
{
1002
}
1000
Base
1070
     3
1070
     0
1002
{
1002
}
1002
}
1000
4AN
1070
     8
1000
4AN
1002
{
1000
Color
1070
     1
1070
     3
1002
{
1002
}
1000
LType
1070
     4
1000
GEN4A
1002
{
1002
}
1000
Base
1070
     3
1070
     0
1002
{
1002
}
1002
}
1000
9N
1070
     8
1000
9N
1002
{
1000
Color
1070
     1
1070
   253
1002
{
1002
}
1000
LType
1070
     4
1000
CONTINUOUS
1002
{
1002
}
1000
Base
1070
     3
1070
     0
1002
{
1002
}
1002
}
1000
IPN
1070
     8
1000
IPN
1002
{
1000
Color
1070
     1
1070
     7
1002
{
1002
}
1000
LType
1070
     4
1000
CONTINUOUS
1002
{
1002
}
1000
Base
1070
     3
1070
     0
1002
{
1002
}
1002
}
1002
}
1000
Extra
1070
     0
1002
{
1000
Klin
1070
     8
1000
KLIN
1002
{
1000
Color
1070
     1
1070
     1
1002
{
1002
}
1000
LType
1070
     4
1000
CONTINUOUS
1002
{
1002
}
1000
Base
1070
     3
1070
     1
1002
{
1002
}
1002
}
1000
Info
1070
     8
1000
INFO
1002
{
1000
Color
1070
     1
1070
     4
1002
{
1002
}
1000
LType
1070
     4
1000
CONTINUOUS
1002
{
1002
}
1000
Base
1070
     3
1070
     1
1002
{
1002
}
1002
}
1000
Rahm2
1070
     8
1000
RAHM2
1002
{
1000
Color
1070
     1
1070
     1
1002
{
1002
}
1000
LType
1070
     4
1000
CONTINUOUS
1002
{
1002
}
1000
Base
1070
     3
1070
     1
1002
{
1002
}
1002
}
1000
Rahm3
1070
     8
1000
RAHM3
1002
{
1000
Color
1070
     1
1070
     2
1002
{
1002
}
1000
LType
1070
     4
1000
CONTINUOUS
1002
{
1002
}
1000
Base
1070
     3
1070
     1
1002
{
1002
}
1002
}
1000
Rahm5
1070
     8
1000
RAHM5
1002
{
1000
Color
1070
     1
1070
     7
1002
{
1002
}
1000
LType
1070
     4
1000
CONTINUOUS
1002
{
1002
}
1000
Base
1070
     3
1070
     1
1002
{
1002
}
1002
}
1000
View
1070
     8
1000
VIEW
1002
{
1000
Color
1070
     1
1070
     1
1002
{
1002
}
1000
LType
1070
     4
1000
CONTINUOUS
1002
{
1002
}
1000
Base
1070
     3
1070
     1
1002
{
1002
}
1002
}
1000
Behind
1070
     8
1000
BEHIND
1002
{
1000
Color
1070
     1
1070
   253
1002
{
1002
}
1000
LType
1070
     4
1000
CONTINUOUS
1002
{
1002
}
1000
Base
1070
     3
1070
     1
1002
{
1002
}
1002
}
1002
}
  0
APPID
  5
4759
330
471B
100
AcDbSymbolTableRecord
100
AcDbRegAppTableRecord
  2
GENIUS_GENCFG3_13
 70
     0
1001
GENIUS_GENCFG_13
1071
1043414125
1000
4759
1000
GEN@LAYER@ENTSORT
1070
    10
1000
GenCfgObject
1000
GenCfgShort
1000
GenCfgReal
1000
GenCfgBool
1000
GenCfgString
1000
GenCfgDim
1000
GenCfgAttrInf
1000
GenCfgLaySection
1000
GenCfgLayer
1000
GenCfgEntSort
1000
ADDL
1070
     9
1000
5
1002
{
1000
Class
1070
     4
1000
SYM
1002
{
1002
}
1000
Color
1070
     1
1070
     1
1002
{
1002
}
1000
LType
1070
     4
1000
BYLAYER
1002
{
1002
}
1002
}
1000
ALTR
1070
     9
1000
4
1002
{
1000
Class
1070
     4
1000

1002
{
1002
}
1000
Color
1070
     1
1070
     7
1002
{
1002
}
1000
LType
1070
     4
1000
GEN3A
1002
{
1002
}
1002
}
1000
BELI
1070
     9
1000
4
1002
{
1000
Class
1070
     4
1000

1002
{
1002
}
1000
Color
1070
     1
1070
   256
1002
{
1002
}
1000
LType
1070
     4
1000
BYLAYER
1002
{
1002
}
1002
}
1000
BHNV
1070
     9
1000
9
1002
{
1000
Class
1070
     4
1000
INV
1002
{
1002
}
1000
Color
1070
     1
1070
   256
1002
{
1002
}
1000
LType
1070
     4
1000
BYLAYER
1002
{
1002
}
1002
}
1000
BHNVS
1070
     9
1000
BEHIND
1002
{
1000
Class
1070
     4
1000
INV
1002
{
1002
}
1000
Color
1070
     1
1070
   256
1002
{
1002
}
1000
LType
1070
     4
1000
BYLAYER
1002
{
1002
}
1002
}
1000
BLID
1070
     9
1000
4A
1002
{
1000
Class
1070
     4
1000

1002
{
1002
}
1000
Color
1070
     1
1070
   256
1002
{
1002
}
1000
LType
1070
     4
1000
BYLAYER
1002
{
1002
}
1002
}
1000
BOAP
1070
     9
1000
4A
1002
{
1000
Class
1070
     4
1000

1002
{
1002
}
1000
Color
1070
     1
1070
   256
1002
{
1002
}
1000
LType
1070
     4
1000
BYLAYER
1002
{
1002
}
1002
}
1000
BOR2
1070
     9
1000
RAHM2
1002
{
1000
Class
1070
     4
1000
SPZ,SYM
1002
{
1002
}
1000
Color
1070
     1
1070
   256
1002
{
1002
}
1000
LType
1070
     4
1000
BYLAYER
1002
{
1002
}
1002
}
1000
BOR3
1070
     9
1000
RAHM3
1002
{
1000
Class
1070
     4
1000
SPZ,SYM
1002
{
1002
}
1000
Color
1070
     1
1070
   256
1002
{
1002
}
1000
LType
1070
     4
1000
BYLAYER
1002
{
1002
}
1002
}
1000
BOR5
1070
     9
1000
RAHM5
1002
{
1000
Class
1070
     4
1000
SPZ,SYM
1002
{
1002
}
1000
Color
1070
     1
1070
   256
1002
{
1002
}
1000
LType
1070
     4
1000
BYLAYER
1002
{
1002
}
1002
}
1000
BOR7
1070
     9
1000
RAHM5
1002
{
1000
Class
1070
     4
1000
SPZ,SYM
1002
{
1002
}
1000
Color
1070
     1
1070
     7
1002
{
1002
}
1000
LType
1070
     4
1000
CONTINUOUS
1002
{
1002
}
1002
}
1000
BPAP
1070
     9
1000
4A
1002
{
1000
Class
1070
     4
1000

1002
{
1002
}
1000
Color
1070
     1
1070
   256
1002
{
1002
}
1000
LType
1070
     4
1000
BYLAYER
1002
{
1002
}
1002
}
1000
BPEX
1070
     9
1000
4A
1002
{
1000
Class
1070
     4
1000

1002
{
1002
}
1000
Color
1070
     1
1070
   256
1002
{
1002
}
1000
LType
1070
     4
1000
BYLAYER
1002
{
1002
}
1002
}
1000
BTDI
1070
     9
1000
5
1002
{
1000
Class
1070
     4
1000
DIM,SYM
1002
{
1002
}
1000
Color
1070
     1
1070
   256
1002
{
1002
}
1000
LType
1070
     4
1000
BYLAYER
1002
{
1002
}
1002
}
1000
CAL2
1070
     9
1000
4
1002
{
1000
Class
1070
     4
1000
SYM
1002
{
1002
}
1000
Color
1070
     1
1070
   256
1002
{
1002
}
1000
LType
1070
     4
1000
BYLAYER
1002
{
1002
}
1002
}
1000
CAL3
1070
     9
1000
4
1002
{
1000
Class
1070
     4
1000
SYM
1002
{
1002
}
1000
Color
1070
     1
1070
     2
1002
{
1002
}
1000
LType
1070
     4
1000
BYLAYER
1002
{
1002
}
1002
}
1000
CAL5
1070
     9
1000
4
1002
{
1000
Class
1070
     4
1000
SYM
1002
{
1002
}
1000
Color
1070
     1
1070
     7
1002
{
1002
}
1000
LType
1070
     4
1000
BYLAYER
1002
{
1002
}
1002
}
1000
CAL7
1070
     9
1000
4
1002
{
1000
Class
1070
     4
1000
SYM
1002
{
1002
}
1000
Color
1070
     1
1070
     5
1002
{
1002
}
1000
LType
1070
     4
1000
BYLAYER
1002
{
1002
}
1002
}
1000
CENN
1070
     9
1000
7A
1002
{
1000
Class
1070
     4
1000
CEN
1002
{
1002
}
1000
Color
1070
     1
1070
   256
1002
{
1002
}
1000
LType
1070
     4
1000
BYLAYER
1002
{
1002
}
1002
}
1000
CENW
1070
     9
1000
7
1002
{
1000
Class
1070
     4
1000
CEN
1002
{
1002
}
1000
Color
1070
     1
1070
   256
1002
{
1002
}
1000
LType
1070
     4
1000
BYLAYER
1002
{
1002
}
1002
}
1000
CLIN
1070
     9
1000
KLIN
1002
{
1000
Class
1070
     4
1000
SPZ
1002
{
1002
}
1000
Color
1070
     1
1070
   256
1002
{
1002
}
1000
LType
1070
     4
1000
BYLAYER
1002
{
1002
}
1002
}
1000
CON1
1070
     9
1000
0
1002
{
1000
Class
1070
     4
1000
CON,BGD
1002
{
1002
}
1000
Color
1070
     1
1070
   256
1002
{
1002
}
1000
LType
1070
     4
1000
BYLAYER
1002
{
1002
}
1002
}
1000
CON2
1070
     9
1000
1
1002
{
1000
Class
1070
     4
1000
CON,BGD
1002
{
1002
}
1000
Color
1070
     1
1070
   256
1002
{
1002
}
1000
LType
1070
     4
1000
BYLAYER
1002
{
1002
}
1002
}
1000
CON3
1070
     9
1000
2
1002
{
1000
Class
1070
     4
1000
CON,BGD
1002
{
1002
}
1000
Color
1070
     1
1070
   256
1002
{
1002
}
1000
LType
1070
     4
1000
BYLAYER
1002
{
1002
}
1002
}
1000
CON4
1070
     9
1000
2
1002
{
1000
Class
1070
     4
1000
CON,BGD
1002
{
1002
}
1000
Color
1070
     1
1070
   256
1002
{
1002
}
1000
LType
1070
     4
1000
BYLAYER
1002
{
1002
}
1002
}
1000
DERP
1070
     9
1000
4
1002
{
1000
Class
1070
     4
1000

1002
{
1002
}
1000
Color
1070
     1
1070
   256
1002
{
1002
}
1000
LType
1070
     4
1000
BYLAYER
1002
{
1002
}
1002
}
1000
DETA
1070
     9
1000
4
1002
{
1000
Class
1070
     4
1000

1002
{
1002
}
1000
Color
1070
     1
1070
   256
1002
{
1002
}
1000
LType
1070
     4
1000
BYLAYER
1002
{
1002
}
1002
}
1000
DIAG
1070
     9
1000
5
1002
{
1000
Class
1070
     4
1000
SYM
1002
{
1002
}
1000
Color
1070
     1
1070
   256
1002
{
1002
}
1000
LType
1070
     4
1000
BYLAYER
1002
{
1002
}
1002
}
1000
DILI
1070
     9
1000
5
1002
{
1000
Class
1070
     4
1000
DIM,SYM
1002
{
1002
}
1000
Color
1070
     1
1070
   256
1002
{
1002
}
1000
LType
1070
     4
1000
BYLAYER
1002
{
1002
}
1002
}
1000
DITO2
1070
     9
1000
5
1002
{
1000
Class
1070
     4
1000
DIM,SYM
1002
{
1002
}
1000
Color
1070
     1
1070
     3
1002
{
1002
}
1000
LType
1070
     4
1000
BYLAYER
1002
{
1002
}
1002
}
1000
DITO3
1070
     9
1000
5
1002
{
1000
Class
1070
     4
1000
DIM,SYM
1002
{
1002
}
1000
Color
1070
     1
1070
     2
1002
{
1002
}
1000
LType
1070
     4
1000
BYLAYER
1002
{
1002
}
1002
}
1000
DITX
1070
     9
1000
5
1002
{
1000
Class
1070
     4
1000
DIM,SYM
1002
{
1002
}
1000
Color
1070
     1
1070
     2
1002
{
1002
}
1000
LType
1070
     4
1000
CONTINUOUS
1002
{
1002
}
1002
}
1000
DIXL
1070
     9
1000
5
1002
{
1000
Class
1070
     4
1000
DIM,SYM
1002
{
1002
}
1000
Color
1070
     1
1070
   256
1002
{
1002
}
1000
LType
1070
     4
1000
BYLAYER
1002
{
1002
}
1002
}
1000
EXMP
1070
     9
1000
4A
1002
{
1000
Class
1070
     4
1000

1002
{
1002
}
1000
Color
1070
     1
1070
   256
1002
{
1002
}
1000
LType
1070
     4
1000
BYLAYER
1002
{
1002
}
1002
}
1000
FEMN
1070
     9
1000
8
1002
{
1000
Class
1070
     4
1000

1002
{
1002
}
1000
Color
1070
     1
1070
   256
1002
{
1002
}
1000
LType
1070
     4
1000
BYLAYER
1002
{
1002
}
1002
}
1000
FEMPN
1070
     9
1000
8
1002
{
1000
Class
1070
     4
1000
SYM
1002
{
1002
}
1000
Color
1070
     1
1070
     3
1002
{
1002
}
1000
LType
1070
     4
1000
BYLAYER
1002
{
1002
}
1002
}
1000
FEMSP
1070
     9
1000
4A
1002
{
1000
Class
1070
     4
1000

1002
{
1002
}
1000
Color
1070
     1
1070
   256
1002
{
1002
}
1000
LType
1070
     4
1000
CONTINUOUS
1002
{
1002
}
1002
}
1000
FEMST
1070
     9
1000
4A
1002
{
1000
Class
1070
     4
1000
SYM
1002
{
1002
}
1000
Color
1070
     1
1070
     3
1002
{
1002
}
1000
LType
1070
     4
1000
BYLAYER
1002
{
1002
}
1002
}
1000
FEMVN
1070
     9
1000
2
1002
{
1000
Class
1070
     4
1000
CON
1002
{
1002
}
1000
Color
1070
     1
1070
   256
1002
{
1002
}
1000
LType
1070
     4
1000
BYLAYER
1002
{
1002
}
1002
}
1000
FEMVT
1070
     9
1000
2
1002
{
1000
Class
1070
     4
1000
SYM
1002
{
1002
}
1000
Color
1070
     1
1070
     3
1002
{
1002
}
1000
LType
1070
     4
1000
BYLAYER
1002
{
1002
}
1002
}
1000
FLAT
1070
     9
1000
0
1002
{
1000
Class
1070
     4
1000

1002
{
1002
}
1000
Color
1070
     1
1070
   256
1002
{
1002
}
1000
LType
1070
     4
1000
BYLAYER
1002
{
1002
}
1002
}
1000
FRAR
1070
     9
1000
4A
1002
{
1000
Class
1070
     4
1000

1002
{
1002
}
1000
Color
1070
     1
1070
   256
1002
{
1002
}
1000
LType
1070
     4
1000
BYLAYER
1002
{
1002
}
1002
}
1000
GRLI
1070
     9
1000
5
1002
{
1000
Class
1070
     4
1000
SYM
1002
{
1002
}
1000
Color
1070
     1
1070
   256
1002
{
1002
}
1000
LType
1070
     4
1000
BYLAYER
1002
{
1002
}
1002
}
1000
GVLI
1070
     9
1000
4A
1002
{
1000
Class
1070
     4
1000

1002
{
1002
}
1000
Color
1070
     1
1070
   256
1002
{
1002
}
1000
LType
1070
     4
1000
BYLAYER
1002
{
1002
}
1002
}
1000
HATC
1070
     9
1000
8
1002
{
1000
Class
1070
     4
1000
HTC,BGD
1002
{
1002
}
1000
Color
1070
     1
1070
   256
1002
{
1002
}
1000
LType
1070
     4
1000
BYLAYER
1002
{
1002
}
1002
}
1000
HIDN
1070
     9
1000
3A
1002
{
1000
Class
1070
     4
1000
HID,BGD
1002
{
1002
}
1000
Color
1070
     1
1070
   256
1002
{
1002
}
1000
LType
1070
     4
1000
BYLAYER
1002
{
1002
}
1002
}
1000
HIDW
1070
     9
1000
3
1002
{
1000
Class
1070
     4
1000
HID,BGD
1002
{
1002
}
1000
Color
1070
     1
1070
   256
1002
{
1002
}
1000
LType
1070
     4
1000
BYLAYER
1002
{
1002
}
1002
}
1000
HLIN
1070
     9
1000
4
1002
{
1000
Class
1070
     4
1000
BGD
1002
{
1002
}
1000
Color
1070
     1
1070
   256
1002
{
1002
}
1000
LType
1070
     4
1000
BYLAYER
1002
{
1002
}
1002
}
1000
HOCN
1070
     9
1000
7A
1002
{
1000
Class
1070
     4
1000
CEN
1002
{
1002
}
1000
Color
1070
     1
1070
   256
1002
{
1002
}
1000
LType
1070
     4
1000
BYLAYER
1002
{
1002
}
1002
}
1000
HOCW
1070
     9
1000
7
1002
{
1000
Class
1070
     4
1000
CEN
1002
{
1002
}
1000
Color
1070
     1
1070
   256
1002
{
1002
}
1000
LType
1070
     4
1000
BYLAYER
1002
{
1002
}
1002
}
1000
INFO
1070
     9
1000
INFO
1002
{
1000
Class
1070
     4
1000
SPZ,SYM
1002
{
1002
}
1000
Color
1070
     1
1070
   256
1002
{
1002
}
1000
LType
1070
     4
1000
BYLAYER
1002
{
1002
}
1002
}
1000
LADI
1070
     9
1000
4
1002
{
1000
Class
1070
     4
1000
BGD
1002
{
1002
}
1000
Color
1070
     1
1070
   256
1002
{
1002
}
1000
LType
1070
     4
1000
BYLAYER
1002
{
1002
}
1002
}
1000
LEAD
1070
     9
1000
5
1002
{
1000
Class
1070
     4
1000
SYM
1002
{
1002
}
1000
Color
1070
     1
1070
   256
1002
{
1002
}
1000
LType
1070
     4
1000
BYLAYER
1002
{
1002
}
1002
}
1000
N_ADDL
1070
     9
1000
5N
1002
{
1000
Class
1070
     4
1000
SYM
1002
{
1002
}
1000
Color
1070
     1
1070
     1
1002
{
1002
}
1000
LType
1070
     4
1000
BYLAYER
1002
{
1002
}
1002
}
1000
N_BHNV
1070
     9
1000
9N
1002
{
1000
Class
1070
     4
1000
INV
1002
{
1002
}
1000
Color
1070
     1
1070
   256
1002
{
1002
}
1000
LType
1070
     4
1000
BYLAYER
1002
{
1002
}
1002
}
1000
N_CON1
1070
     9
1000
0N
1002
{
1000
Class
1070
     4
1000
CON,BGD
1002
{
1002
}
1000
Color
1070
     1
1070
   256
1002
{
1002
}
1000
LType
1070
     4
1000
BYLAYER
1002
{
1002
}
1002
}
1000
N_CON2
1070
     9
1000
1N
1002
{
1000
Class
1070
     4
1000
CON,BGD
1002
{
1002
}
1000
Color
1070
     1
1070
   256
1002
{
1002
}
1000
LType
1070
     4
1000
BYLAYER
1002
{
1002
}
1002
}
1000
N_CON3
1070
     9
1000
2N
1002
{
1000
Class
1070
     4
1000
CON,BGD
1002
{
1002
}
1000
Color
1070
     1
1070
   256
1002
{
1002
}
1000
LType
1070
     4
1000
BYLAYER
1002
{
1002
}
1002
}
1000
N_CON4
1070
     9
1000
2N
1002
{
1000
Class
1070
     4
1000
CON,BGD
1002
{
1002
}
1000
Color
1070
     1
1070
   256
1002
{
1002
}
1000
LType
1070
     4
1000
BYLAYER
1002
{
1002
}
1002
}
1000
N_CENN
1070
     9
1000
7AN
1002
{
1000
Class
1070
     4
1000
CEN
1002
{
1002
}
1000
Color
1070
     1
1070
   256
1002
{
1002
}
1000
LType
1070
     4
1000
BYLAYER
1002
{
1002
}
1002
}
1000
N_CENW
1070
     9
1000
7N
1002
{
1000
Class
1070
     4
1000
CEN
1002
{
1002
}
1000
Color
1070
     1
1070
   256
1002
{
1002
}
1000
LType
1070
     4
1000
BYLAYER
1002
{
1002
}
1002
}
1000
N_DILI
1070
     9
1000
5N
1002
{
1000
Class
1070
     4
1000
DIM,SYM
1002
{
1002
}
1000
Color
1070
     1
1070
   256
1002
{
1002
}
1000
LType
1070
     4
1000
BYLAYER
1002
{
1002
}
1002
}
1000
N_DITX
1070
     9
1000
5N
1002
{
1000
Class
1070
     4
1000
DIM,SYM
1002
{
1002
}
1000
Color
1070
     1
1070
     2
1002
{
1002
}
1000
LType
1070
     4
1000
CONTINUOUS
1002
{
1002
}
1002
}
1000
N_DIXL
1070
     9
1000
5N
1002
{
1000
Class
1070
     4
1000
DIM,SYM
1002
{
1002
}
1000
Color
1070
     1
1070
   256
1002
{
1002
}
1000
LType
1070
     4
1000
BYLAYER
1002
{
1002
}
1002
}
1000
N_HATC
1070
     9
1000
8N
1002
{
1000
Class
1070
     4
1000
HTC,BGD
1002
{
1002
}
1000
Color
1070
     1
1070
   256
1002
{
1002
}
1000
LType
1070
     4
1000
BYLAYER
1002
{
1002
}
1002
}
1000
N_HIDN
1070
     9
1000
3AN
1002
{
1000
Class
1070
     4
1000
HID,BGD
1002
{
1002
}
1000
Color
1070
     1
1070
   256
1002
{
1002
}
1000
LType
1070
     4
1000
BYLAYER
1002
{
1002
}
1002
}
1000
N_HIDW
1070
     9
1000
3N
1002
{
1000
Class
1070
     4
1000
HID,BGD
1002
{
1002
}
1000
Color
1070
     1
1070
   256
1002
{
1002
}
1000
LType
1070
     4
1000
BYLAYER
1002
{
1002
}
1002
}
1000
N_NGIP
1070
     9
1000
IPN
1002
{
1000
Class
1070
     4
1000

1002
{
1002
}
1000
Color
1070
     1
1070
   256
1002
{
1002
}
1000
LType
1070
     4
1000
BYLAYER
1002
{
1002
}
1002
}
1000
N_PHAN
1070
     9
1000
4AN
1002
{
1000
Class
1070
     4
1000

1002
{
1002
}
1000
Color
1070
     1
1070
   256
1002
{
1002
}
1000
LType
1070
     4
1000
BYLAYER
1002
{
1002
}
1002
}
1000
N_POSL
1070
     9
1000
5N
1002
{
1000
Class
1070
     4
1000
SYM
1002
{
1002
}
1000
Color
1070
     1
1070
   256
1002
{
1002
}
1000
LType
1070
     4
1000
BYLAYER
1002
{
1002
}
1002
}
1000
N_TCON
1070
     9
1000
0N
1002
{
1000
Class
1070
     4
1000
CON,BGD
1002
{
1002
}
1000
Color
1070
     1
1070
   256
1002
{
1002
}
1000
LType
1070
     4
1000
BYLAYER
1002
{
1002
}
1002
}
1000
N_THLI
1070
     9
1000
4N
1002
{
1000
Class
1070
     4
1000
BGD
1002
{
1002
}
1000
Color
1070
     1
1070
   256
1002
{
1002
}
1000
LType
1070
     4
1000
BYLAYER
1002
{
1002
}
1002
}
1000
N_TLEN
1070
     9
1000
0N
1002
{
1000
Class
1070
     4
1000
CON,BGD
1002
{
1002
}
1000
Color
1070
     1
1070
   256
1002
{
1002
}
1000
LType
1070
     4
1000
BYLAYER
1002
{
1002
}
1002
}
1000
N_TXT3
1070
     9
1000
6N
1002
{
1000
Class
1070
     4
1000
SYM
1002
{
1002
}
1000
Color
1070
     1
1070
   256
1002
{
1002
}
1000
LType
1070
     4
1000
BYLAYER
1002
{
1002
}
1002
}
1000
N_VPLI
1070
     9
1000
2AN
1002
{
1000
Class
1070
     4
1000

1002
{
1002
}
1000
Color
1070
     1
1070
   256
1002
{
1002
}
1000
LType
1070
     4
1000
BYLAYER
1002
{
1002
}
1002
}
1000
NGIP
1070
     9
1000
IP
1002
{
1000
Class
1070
     4
1000

1002
{
1002
}
1000
Color
1070
     1
1070
   256
1002
{
1002
}
1000
LType
1070
     4
1000
BYLAYER
1002
{
1002
}
1002
}
1000
PAL2
1070
     9
1000
RAHM2
1002
{
1000
Class
1070
     4
1000
SPZ,SYM
1002
{
1002
}
1000
Color
1070
     1
1070
   256
1002
{
1002
}
1000
LType
1070
     4
1000
BYLAYER
1002
{
1002
}
1002
}
1000
PAL3
1070
     9
1000
RAHM3
1002
{
1000
Class
1070
     4
1000
SPZ,SYM
1002
{
1002
}
1000
Color
1070
     1
1070
   256
1002
{
1002
}
1000
LType
1070
     4
1000
BYLAYER
1002
{
1002
}
1002
}
1000
PAL5
1070
     9
1000
RAHM5
1002
{
1000
Class
1070
     4
1000
SPZ,SYM
1002
{
1002
}
1000
Color
1070
     1
1070
   256
1002
{
1002
}
1000
LType
1070
     4
1000
BYLAYER
1002
{
1002
}
1002
}
1000
PAL7
1070
     9
1000
RAHM5
1002
{
1000
Class
1070
     4
1000
SPZ,SYM
1002
{
1002
}
1000
Color
1070
     1
1070
     7
1002
{
1002
}
1000
LType
1070
     4
1000
CONTINUOUS
1002
{
1002
}
1002
}
1000
PHAN
1070
     9
1000
4A
1002
{
1000
Class
1070
     4
1000

1002
{
1002
}
1000
Color
1070
     1
1070
   256
1002
{
1002
}
1000
LType
1070
     4
1000
BYLAYER
1002
{
1002
}
1002
}
1000
POSL
1070
     9
1000
5
1002
{
1000
Class
1070
     4
1000
SYM
1002
{
1002
}
1000
Color
1070
     1
1070
   256
1002
{
1002
}
1000
LType
1070
     4
1000
BYLAYER
1002
{
1002
}
1002
}
1000
POSN
1070
     9
1000
6
1002
{
1000
Class
1070
     4
1000
SYM
1002
{
1002
}
1000
Color
1070
     1
1070
     7
1002
{
1002
}
1000
LType
1070
     4
1000
BYLAYER
1002
{
1002
}
1002
}
1000
POSREF
1070
     9
1000
6
1002
{
1000
Class
1070
     4
1000
SYM
1002
{
1002
}
1000
Color
1070
     1
1070
     5
1002
{
1002
}
1000
LType
1070
     4
1000
BYLAYER
1002
{
1002
}
1002
}
1000
POSX
1070
     9
1000
5
1002
{
1000
Class
1070
     4
1000
SYM
1002
{
1002
}
1000
Color
1070
     1
1070
     2
1002
{
1002
}
1000
LType
1070
     4
1000
CONTINUOUS
1002
{
1002
}
1002
}
1000
PSEC
1070
     9
1000
4A
1002
{
1000
Class
1070
     4
1000

1002
{
1002
}
1000
Color
1070
     1
1070
   256
1002
{
1002
}
1000
LType
1070
     4
1000
BYLAYER
1002
{
1002
}
1002
}
1000
RCGN
1070
     9
1000
7A
1002
{
1000
Class
1070
     4
1000
CEN
1002
{
1002
}
1000
Color
1070
     1
1070
   256
1002
{
1002
}
1000
LType
1070
     4
1000
BYLAYER
1002
{
1002
}
1002
}
1000
RCGW
1070
     9
1000
7
1002
{
1000
Class
1070
     4
1000
CEN
1002
{
1002
}
1000
Color
1070
     1
1070
   256
1002
{
1002
}
1000
LType
1070
     4
1000
BYLAYER
1002
{
1002
}
1002
}
1000
RFDI
1070
     9
1000
4
1002
{
1000
Class
1070
     4
1000
BGD
1002
{
1002
}
1000
Color
1070
     1
1070
   256
1002
{
1002
}
1000
LType
1070
     4
1000
BYLAYER
1002
{
1002
}
1002
}
1000
RQTR
1070
     9
1000
4
1002
{
1000
Class
1070
     4
1000

1002
{
1002
}
1000
Color
1070
     1
1070
     7
1002
{
1002
}
1000
LType
1070
     4
1000
GEN7A
1002
{
1002
}
1002
}
1000
RSBO
1070
     9
1000
4
1002
{
1000
Class
1070
     4
1000
BGD
1002
{
1002
}
1000
Color
1070
     1
1070
   256
1002
{
1002
}
1000
LType
1070
     4
1000
BYLAYER
1002
{
1002
}
1002
}
1000
SBRK
1070
     9
1000
4
1002
{
1000
Class
1070
     4
1000
BGD
1002
{
1002
}
1000
Color
1070
     1
1070
   256
1002
{
1002
}
1000
LType
1070
     4
1000
BYLAYER
1002
{
1002
}
1002
}
1000
SCEN
1070
     9
1000
7
1002
{
1000
Class
1070
     4
1000

1002
{
1002
}
1000
Color
1070
     1
1070
   256
1002
{
1002
}
1000
LType
1070
     4
1000
CONTINUOUS
1002
{
1002
}
1002
}
1000
SECT
1070
     9
1000
4
1002
{
1000
Class
1070
     4
1000
BGD
1002
{
1002
}
1000
Color
1070
     1
1070
   256
1002
{
1002
}
1000
LType
1070
     4
1000
BYLAYER
1002
{
1002
}
1002
}
1000
SELN
1070
     9
1000
7A
1002
{
1000
Class
1070
     4
1000

1002
{
1002
}
1000
Color
1070
     1
1070
   256
1002
{
1002
}
1000
LType
1070
     4
1000
BYLAYER
1002
{
1002
}
1002
}
1000
SELW
1070
     9
1000
7
1002
{
1000
Class
1070
     4
1000

1002
{
1002
}
1000
Color
1070
     1
1070
   256
1002
{
1002
}
1000
LType
1070
     4
1000
BYLAYER
1002
{
1002
}
1002
}
1000
SSYS
1070
     9
1000
0
1002
{
1000
Class
1070
     4
1000

1002
{
1002
}
1000
Color
1070
     1
1070
   256
1002
{
1002
}
1000
LType
1070
     4
1000
BYLAYER
1002
{
1002
}
1002
}
1000
STLI
1070
     9
1000
4
1002
{
1000
Class
1070
     4
1000

1002
{
1002
}
1000
Color
1070
     1
1070
     7
1002
{
1002
}
1000
LType
1070
     4
1000
GEN3A
1002
{
1002
}
1002
}
1000
SYB1
1070
     9
1000
5
1002
{
1000
Class
1070
     4
1000
SYM
1002
{
1002
}
1000
Color
1070
     1
1070
   256
1002
{
1002
}
1000
LType
1070
     4
1000
BYLAYER
1002
{
1002
}
1002
}
1000
SYB2
1070
     9
1000
5
1002
{
1000
Class
1070
     4
1000
SYM
1002
{
1002
}
1000
Color
1070
     1
1070
   256
1002
{
1002
}
1000
LType
1070
     4
1000
BYLAYER
1002
{
1002
}
1002
}
1000
SYB3
1070
     9
1000
6
1002
{
1000
Class
1070
     4
1000
SYM
1002
{
1002
}
1000
Color
1070
     1
1070
   256
1002
{
1002
}
1000
LType
1070
     4
1000
CONTINUOUS
1002
{
1002
}
1002
}
1000
SYB5
1070
     9
1000
5
1002
{
1000
Class
1070
     4
1000
SYM
1002
{
1002
}
1000
Color
1070
     1
1070
     7
1002
{
1002
}
1000
LType
1070
     4
1000
BYLAYER
1002
{
1002
}
1002
}
1000
SYMN
1070
     9
1000
7A
1002
{
1000
Class
1070
     4
1000
CEN
1002
{
1002
}
1000
Color
1070
     1
1070
   256
1002
{
1002
}
1000
LType
1070
     4
1000
BYLAYER
1002
{
1002
}
1002
}
1000
SYMW
1070
     9
1000
7
1002
{
1000
Class
1070
     4
1000
CEN
1002
{
1002
}
1000
Color
1070
     1
1070
   256
1002
{
1002
}
1000
LType
1070
     4
1000
BYLAYER
1002
{
1002
}
1002
}
1000
TCON
1070
     9
1000
0
1002
{
1000
Class
1070
     4
1000
CON,BGD
1002
{
1002
}
1000
Color
1070
     1
1070
   256
1002
{
1002
}
1000
LType
1070
     4
1000
BYLAYER
1002
{
1002
}
1002
}
1000
THLI
1070
     9
1000
4
1002
{
1000
Class
1070
     4
1000
BGD
1002
{
1002
}
1000
Color
1070
     1
1070
   256
1002
{
1002
}
1000
LType
1070
     4
1000
BYLAYER
1002
{
1002
}
1002
}
1000
TIT2
1070
     9
1000
RAHM2
1002
{
1000
Class
1070
     4
1000
SPZ,SYM
1002
{
1002
}
1000
Color
1070
     1
1070
   256
1002
{
1002
}
1000
LType
1070
     4
1000
BYLAYER
1002
{
1002
}
1002
}
1000
TIT3
1070
     9
1000
RAHM3
1002
{
1000
Class
1070
     4
1000
SPZ,SYM
1002
{
1002
}
1000
Color
1070
     1
1070
   256
1002
{
1002
}
1000
LType
1070
     4
1000
BYLAYER
1002
{
1002
}
1002
}
1000
TIT5
1070
     9
1000
RAHM5
1002
{
1000
Class
1070
     4
1000
SPZ,SYM
1002
{
1002
}
1000
Color
1070
     1
1070
   256
1002
{
1002
}
1000
LType
1070
     4
1000
BYLAYER
1002
{
1002
}
1002
}
1000
TIT7
1070
     9
1000
RAHM5
1002
{
1000
Class
1070
     4
1000
SPZ,SYM
1002
{
1002
}
1000
Color
1070
     1
1070
     7
1002
{
1002
}
1000
LType
1070
     4
1000
CONTINUOUS
1002
{
1002
}
1002
}
1000
TLEN
1070
     9
1000
0
1002
{
1000
Class
1070
     4
1000
CON,BGD
1002
{
1002
}
1000
Color
1070
     1
1070
   256
1002
{
1002
}
1000
LType
1070
     4
1000
BYLAYER
1002
{
1002
}
1002
}
1000
TRKN
1070
     9
1000
7A
1002
{
1000
Class
1070
     4
1000

1002
{
1002
}
1000
Color
1070
     1
1070
   256
1002
{
1002
}
1000
LType
1070
     4
1000
BYLAYER
1002
{
1002
}
1002
}
1000
TRKW
1070
     9
1000
7
1002
{
1000
Class
1070
     4
1000

1002
{
1002
}
1000
Color
1070
     1
1070
   256
1002
{
1002
}
1000
LType
1070
     4
1000
BYLAYER
1002
{
1002
}
1002
}
1000
TRLI
1070
     9
1000
4
1002
{
1000
Class
1070
     4
1000
BGD
1002
{
1002
}
1000
Color
1070
     1
1070
   256
1002
{
1002
}
1000
LType
1070
     4
1000
BYLAYER
1002
{
1002
}
1002
}
1000
TXT1
1070
     9
1000
6
1002
{
1000
Class
1070
     4
1000
SYM
1002
{
1002
}
1000
Color
1070
     1
1070
     2
1002
{
1002
}
1000
LType
1070
     4
1000
BYLAYER
1002
{
1002
}
1002
}
1000
TXT2
1070
     9
1000
6
1002
{
1000
Class
1070
     4
1000
SYM
1002
{
1002
}
1000
Color
1070
     1
1070
     2
1002
{
1002
}
1000
LType
1070
     4
1000
BYLAYER
1002
{
1002
}
1002
}
1000
TXT3
1070
     9
1000
6
1002
{
1000
Class
1070
     4
1000
SYM
1002
{
1002
}
1000
Color
1070
     1
1070
   256
1002
{
1002
}
1000
LType
1070
     4
1000
BYLAYER
1002
{
1002
}
1002
}
1000
TXT5
1070
     9
1000
6
1002
{
1000
Class
1070
     4
1000
SYM
1002
{
1002
}
1000
Color
1070
     1
1070
     7
1002
{
1002
}
1000
LType
1070
     4
1000
BYLAYER
1002
{
1002
}
1002
}
1000
TXT7
1070
     9
1000
6
1002
{
1000
Class
1070
     4
1000
SYM
1002
{
1002
}
1000
Color
1070
     1
1070
     7
1002
{
1002
}
1000
LType
1070
     4
1000
BYLAYER
1002
{
1002
}
1002
}
1000
VIEW
1070
     9
1000
VIEW
1002
{
1000
Class
1070
     4
1000
SPZ
1002
{
1002
}
1000
Color
1070
     1
1070
   256
1002
{
1002
}
1000
LType
1070
     4
1000
BYLAYER
1002
{
1002
}
1002
}
1000
VPLI
1070
     9
1000
2A
1002
{
1000
Class
1070
     4
1000

1002
{
1002
}
1000
Color
1070
     1
1070
   256
1002
{
1002
}
1000
LType
1070
     4
1000
BYLAYER
1002
{
1002
}
1002
}
1000
ZIZA
1070
     9
1000
4
1002
{
1000
Class
1070
     4
1000
BGD
1002
{
1002
}
1000
Color
1070
     1
1070
   256
1002
{
1002
}
1000
LType
1070
     4
1000
GENZIGZAG
1002
{
1002
}
1002
}
  0
APPID
  5
475A
330
471B
100
AcDbSymbolTableRecord
100
AcDbRegAppTableRecord
  2
GENIUS_GENCFG4_13
 70
     0
1001
GENIUS_GENCFG_13
1071
1043414125
1000
475A
1000
GEN
1070
    12
1000
GenCfgObject
1000
GenCfgShort
1000
GenCfgReal
1000
GenCfgBool
1000
GenCfgString
1000
GenCfgDim
1000
GenCfgAttrInf
1000
GenCfgLaySection
1000
GenCfgLayer
1000
GenCfgEntSort
1000
GenCfgLType
1000
GenCfgFilter
1000
Balloon
1070
     0
1002
{
1000
GenIF
1070
     1
1070
     0
1002
{
1002
}
1000
GenPosInc
1070
     1
1070
     1
1002
{
1002
}
1000
GenPosBlk
1070
     1
1070
     8
1002
{
1002
}
1000
GenPosVar
1070
     1
1070
     0
1002
{
1002
}
1000
GenZiCir
1070
     2
1040
1.5
1002
{
1002
}
1000
MaxCharForCenteredText
1070
     1
1070
    30
1002
{
1002
}
1000
Snap
1070
     0
1002
{
1000
ActivationRadius
1070
     2
1040
1.0
1002
{
1002
}
1000
M
1070
     0
1002
{
1000
SnapStepX
1070
     2
1040
20.0
1002
{
1002
}
1000
SnapStepY
1070
     2
1040
10.0
1002
{
1002
}
1002
}
1000
I
1070
     0
1002
{
1000
SnapStepX
1070
     2
1040
1.0
1002
{
1002
}
1000
SnapStepY
1070
     2
1040
0.5
1002
{
1002
}
1002
}
1002
}
1002
}
1000
Centerline
1070
     0
1002
{
1000
ScaleNot
1070
     3
1070
     0
1002
{
1002
}
1000
M
1070
     0
1002
{
1000
GenCenAng
1070
     4
1000
45|90|135
1002
{
1002
}
1000
GenCenDia
1070
     2
1040
10.0
1002
{
1002
}
1000
GenCenDias
1070
     4
1000
10|20|30
1002
{
1002
}
1000
GenCenDist
1070
     2
1040
3.0
1002
{
1002
}
1000
GenCenLen
1070
     2
1040
10.0
1002
{
1002
}
1000
GenCenOff
1070
     2
1040
10.0
1002
{
1002
}
1002
}
1000
I
1070
     0
1002
{
1000
GenCenAng
1070
     4
1000
45|90|135
1002
{
1002
}
1000
GenCenDia
1070
     2
1040
0.5
1002
{
1002
}
1000
GenCenDias
1070
     4
1000
0.5|1.0|1.5
1002
{
1002
}
1000
GenCenDist
1070
     2
1040
0.125
1002
{
1002
}
1000
GenCenLen
1070
     2
1040
0.5
1002
{
1002
}
1000
GenCenOff
1070
     2
1040
0.5
1002
{
1002
}
1002
}
1002
}
1000
CLine
1070
     0
1002
{
1000
CAngArray
1070
     4
1000
30|45|60
1002
{
1002
}
1000
Typ
1070
     4
1000
XLINE
1002
{
1002
}
1000
M
1070
     0
1002
{
1000
CLinArray
1070
     4
1000
10|20|30
1002
{
1002
}
1002
}
1000
I
1070
     0
1002
{
1000
CLinArray
1070
     4
1000
0.125|0.25|0.5
1002
{
1002
}
1002
}
1002
}
1000
Detail
1070
     0
1002
{
1002
}
1000
Dimension
1070
     5
1002
{
1000
DIMALT
1070
     1
1070
     0
1002
{
1002
}
1000
DIMALTD
1070
     1
1070
     2
1002
{
1002
}
1000
DIMALTTD
1070
     1
1070
     4
1002
{
1002
}
1000
DIMALTTZ
1070
     1
1070
     0
1002
{
1002
}
1000
DIMALTU
1070
     1
1070
     2
1002
{
1002
}
1000
DIMALTZ
1070
     1
1070
     0
1002
{
1002
}
1000
DIMAUNIT
1070
     1
1070
     0
1002
{
1002
}
1000
DIMBLK
1070
     4
1000

1002
{
1002
}
1000
DIMBLK1
1070
     4
1000

1002
{
1002
}
1000
DIMBLK2
1070
     4
1000

1002
{
1002
}
1000
DIMCLRD
1070
     1
1070
   256
1002
{
1002
}
1000
DIMCLRE
1070
     1
1070
   256
1002
{
1002
}
1000
DIMCLRT
1070
     1
1070
     2
1002
{
1002
}
1000
DIMDLE
1070
     2
1040
0.0
1002
{
1002
}
1000
DIMFIT
1070
     1
1070
     3
1002
{
1002
}
1000
DIMJUST
1070
     1
1070
     0
1002
{
1002
}
1000
DIMLFAC
1070
     2
1040
1.0
1002
{
1002
}
1000
DIMLIM
1070
     1
1070
     0
1002
{
1002
}
1000
DIMPOST
1070
     4
1000

1002
{
1002
}
1000
DIMRND
1070
     2
1040
0.0
1002
{
1002
}
1000
DIMSAH
1070
     1
1070
     0
1002
{
1002
}
1000
DIMSCALE
1070
     2
1040
1.0
1002
{
1002
}
1000
DIMSD1
1070
     1
1070
     0
1002
{
1002
}
1000
DIMSD2
1070
     1
1070
     0
1002
{
1002
}
1000
DIMSE1
1070
     1
1070
     0
1002
{
1002
}
1000
DIMSE2
1070
     1
1070
     0
1002
{
1002
}
1000
DIMSOXD
1070
     1
1070
     0
1002
{
1002
}
1000
DIMTAD
1070
     1
1070
     0
1002
{
1002
}
1000
DIMTFAC
1070
     2
1040
0.71
1002
{
1002
}
1000
DIMTIH
1070
     1
1070
     0
1002
{
1002
}
1000
DIMTIX
1070
     1
1070
     0
1002
{
1002
}
1000
DIMTM
1070
     2
1040
0.1
1002
{
1002
}
1000
DIMTOFL
1070
     1
1070
     0
1002
{
1002
}
1000
DIMTOH
1070
     1
1070
     0
1002
{
1002
}
1000
DIMTOL
1070
     1
1070
     0
1002
{
1002
}
1000
DIMTOLJ
1070
     1
1070
     1
1002
{
1002
}
1000
DIMTP
1070
     2
1040
0.1
1002
{
1002
}
1000
DIMTSZ
1070
     2
1040
0.0
1002
{
1002
}
1000
DIMTVP
1070
     2
1040
0.0
1002
{
1002
}
1000
DIMTXSTY
1070
     4
1000
STANDARD
1002
{
1002
}
1000
DIMTZIN
1070
     1
1070
     0
1002
{
1002
}
1000
DIMUNIT
1070
     1
1070
     2
1002
{
1002
}
1000
DIMUPT
1070
     1
1070
     0
1002
{
1002
}
1000
M
1070
     0
1002
{
1000
DIMALTF
1070
     2
1040
0.03937
1002
{
1002
}
1000
DIMAPOST
1070
     4
1000
"
1002
{
1002
}
1000
DIMASZ
1070
     2
1040
2.5
1002
{
1002
}
1000
DIMCEN
1070
     2
1040
0.0
1002
{
1002
}
1000
DIMDEC
1070
     1
1070
     2
1002
{
1002
}
1000
DIMDLI
1070
     2
1040
7.0
1002
{
1002
}
1000
DIMEXE
1070
     2
1040
1.0
1002
{
1002
}
1000
DIMEXO
1070
     2
1040
1.0
1002
{
1002
}
1000
DIMGAP
1070
     2
1040
0.6
1002
{
1002
}
1000
DIMTDEC
1070
     1
1070
     3
1002
{
1002
}
1000
DIMTXT
1070
     2
1040
3.5
1002
{
1002
}
1000
DIMZIN
1070
     1
1070
     8
1002
{
1002
}
1002
}
1000
I
1070
     0
1002
{
1000
DIMALTF
1070
     2
1040
25.4
1002
{
1002
}
1000
DIMAPOST
1070
     4
1000
mm
1002
{
1002
}
1000
DIMASZ
1070
     2
1040
0.1
1002
{
1002
}
1000
DIMCEN
1070
     2
1040
0.0
1002
{
1002
}
1000
DIMDEC
1070
     1
1070
     4
1002
{
1002
}
1000
DIMDLI
1070
     2
1040
0.5
1002
{
1002
}
1000
DIMEXE
1070
     2
1040
0.1
1002
{
1002
}
1000
DIMEXO
1070
     2
1040
0.05
1002
{
1002
}
1000
DIMGAP
1070
     2
1040
0.06
1002
{
1002
}
1000
DIMTDEC
1070
     1
1070
     4
1002
{
1002
}
1000
DIMTXT
1070
     2
1040
0.12
1002
{
1002
}
1000
DIMZIN
1070
     1
1070
     7
1002
{
1002
}
1002
}
1000
GEN-ISO
1070
     5
1002
{
1000
NAME
1070
     4
1000
GEN-ISO
1002
{
1002
}
1000
DIMTAD
1070
     1
1070
     1
1002
{
1002
}
1000
DIMTOLJ
1070
     1
1070
     0
1002
{
1002
}
1000
DIMTOFL
1070
     1
1070
     1
1002
{
1002
}
1000
M
1070
     0
1002
{
1002
}
1000
I
1070
     0
1002
{
1002
}
1002
}
1000
GEN-ISO-POS
1070
     5
1002
{
1000
NAME
1070
     4
1000
GEN-ISO-POS
1002
{
1002
}
1000
DIMTOLJ
1070
     1
1070
     0
1002
{
1002
}
1000
DIMTXSTY
1070
     4
1000
STANDARD
1002
{
1002
}
1000
M
1070
     0
1002
{
1000
DIMASZ
1070
     2
1040
2.5
1002
{
1002
}
1000
DIMGAP
1070
     2
1040
1.5
1002
{
1002
}
1000
DIMTXT
1070
     2
1040
5.0
1002
{
1002
}
1002
}
1000
I
1070
     0
1002
{
1000
DIMASZ
1070
     2
1040
0.1
1002
{
1002
}
1000
DIMGAP
1070
     2
1040
0.06
1002
{
1002
}
1000
DIMTXT
1070
     2
1040
0.2
1002
{
1002
}
1002
}
1002
}
1000
GEN-ISO-CIR
1070
     5
1002
{
1000
NAME
1070
     4
1000
GEN-ISO$3
1002
{
1002
}
1000
DIMFIT
1070
     1
1070
     0
1002
{
1002
}
1000
DIMTAD
1070
     1
1070
     1
1002
{
1002
}
1000
DIMTOH
1070
     1
1070
     1
1002
{
1002
}
1000
DIMTOLJ
1070
     1
1070
     0
1002
{
1002
}
1000
DIMUPT
1070
     1
1070
     1
1002
{
1002
}
1000
M
1070
     0
1002
{
1002
}
1000
I
1070
     0
1002
{
1002
}
1002
}
1000
GEN-ISO-RAD
1070
     5
1002
{
1000
NAME
1070
     4
1000
GEN-ISO$4
1002
{
1002
}
1000
DIMFIT
1070
     1
1070
     0
1002
{
1002
}
1000
DIMTAD
1070
     1
1070
     1
1002
{
1002
}
1000
DIMTIH
1070
     1
1070
     0
1002
{
1002
}
1000
DIMTIX
1070
     1
1070
     0
1002
{
1002
}
1000
DIMTOH
1070
     1
1070
     1
1002
{
1002
}
1000
DIMTOLJ
1070
     1
1070
     0
1002
{
1002
}
1000
DIMTOFL
1070
     1
1070
     0
1002
{
1002
}
1000
DIMUPT
1070
     1
1070
     1
1002
{
1002
}
1000
M
1070
     0
1002
{
1002
}
1000
I
1070
     0
1002
{
1002
}
1002
}
1000
GEN-ISO-ORD
1070
     5
1002
{
1000
NAME
1070
     4
1000
GEN-ISO$6
1002
{
1002
}
1000
DIMTOLJ
1070
     1
1070
     0
1002
{
1002
}
1000
M
1070
     0
1002
{
1002
}
1000
I
1070
     0
1002
{
1002
}
1002
}
1000
GEN-ISO-AXE-F
1070
     5
1002
{
1000
NAME
1070
     4
1000
GEN-ISO-AXE-F
1002
{
1002
}
1000
DIMSE1
1070
     1
1070
     1
1002
{
1002
}
1000
DIMSE2
1070
     1
1070
     1
1002
{
1002
}
1000
DIMTAD
1070
     1
1070
     1
1002
{
1002
}
1000
DIMTOLJ
1070
     1
1070
     0
1002
{
1002
}
1000
DIMTOFL
1070
     1
1070
     1
1002
{
1002
}
1000
M
1070
     0
1002
{
1002
}
1000
I
1070
     0
1002
{
1002
}
1002
}
1000
GEN-ISO-AXE-H
1070
     5
1002
{
1000
NAME
1070
     4
1000
GEN-ISO-AXE-H
1002
{
1002
}
1000
DIMBLK1
1070
     4
1000
GENAXEH
1002
{
1002
}
1000
DIMLFAC
1070
     2
1040
2.0
1002
{
1002
}
1000
DIMSAH
1070
     1
1070
     1
1002
{
1002
}
1000
DIMSE1
1070
     1
1070
     1
1002
{
1002
}
1000
DIMSE2
1070
     1
1070
     1
1002
{
1002
}
1000
DIMTAD
1070
     1
1070
     1
1002
{
1002
}
1000
DIMTOLJ
1070
     1
1070
     0
1002
{
1002
}
1000
DIMTOFL
1070
     1
1070
     1
1002
{
1002
}
1000
M
1070
     0
1002
{
1002
}
1000
I
1070
     0
1002
{
1002
}
1002
}
1000
GEN-ANSI
1070
     5
1002
{
1000
NAME
1070
     4
1000
GEN-ANSI
1002
{
1002
}
1000
DIMTIH
1070
     1
1070
     1
1002
{
1002
}
1000
DIMTOH
1070
     1
1070
     1
1002
{
1002
}
1000
DIMTAD
1070
     1
1070
     0
1002
{
1002
}
1000
DIMTOLJ
1070
     1
1070
     1
1002
{
1002
}
1000
M
1070
     0
1002
{
1002
}
1000
I
1070
     0
1002
{
1002
}
1002
}
1000
GEN-ANSI-POS
1070
     5
1002
{
1000
NAME
1070
     4
1000
GEN-ANSI-POS
1002
{
1002
}
1000
DIMTOLJ
1070
     1
1070
     1
1002
{
1002
}
1000
DIMTXSTY
1070
     4
1000
STANDARD
1002
{
1002
}
1000
M
1070
     0
1002
{
1000
DIMASZ
1070
     2
1040
2.5
1002
{
1002
}
1000
DIMGAP
1070
     2
1040
1.5
1002
{
1002
}
1000
DIMTXT
1070
     2
1040
5.0
1002
{
1002
}
1002
}
1000
I
1070
     0
1002
{
1000
DIMASZ
1070
     2
1040
0.1
1002
{
1002
}
1000
DIMGAP
1070
     2
1040
0.06
1002
{
1002
}
1000
DIMTXT
1070
     2
1040
0.2
1002
{
1002
}
1002
}
1002
}
1000
GEN-ANSI-CIR
1070
     5
1002
{
1000
NAME
1070
     4
1000
GEN-ANSI$3
1002
{
1002
}
1000
DIMFIT
1070
     1
1070
     0
1002
{
1002
}
1000
DIMTAD
1070
     1
1070
     0
1002
{
1002
}
1000
DIMTIH
1070
     1
1070
     1
1002
{
1002
}
1000
DIMTIX
1070
     1
1070
     0
1002
{
1002
}
1000
DIMTOFL
1070
     1
1070
     0
1002
{
1002
}
1000
DIMTOH
1070
     1
1070
     1
1002
{
1002
}
1000
DIMTOLJ
1070
     1
1070
     1
1002
{
1002
}
1000
DIMUPT
1070
     1
1070
     1
1002
{
1002
}
1000
M
1070
     0
1002
{
1002
}
1000
I
1070
     0
1002
{
1002
}
1002
}
1000
GEN-ANSI-RAD
1070
     5
1002
{
1000
NAME
1070
     4
1000
GEN-ANSI$4
1002
{
1002
}
1000
DIMFIT
1070
     1
1070
     0
1002
{
1002
}
1000
DIMTAD
1070
     1
1070
     0
1002
{
1002
}
1000
DIMTIH
1070
     1
1070
     1
1002
{
1002
}
1000
DIMTIX
1070
     1
1070
     0
1002
{
1002
}
1000
DIMTOFL
1070
     1
1070
     0
1002
{
1002
}
1000
DIMTOH
1070
     1
1070
     1
1002
{
1002
}
1000
DIMTOLJ
1070
     1
1070
     1
1002
{
1002
}
1000
DIMUPT
1070
     1
1070
     1
1002
{
1002
}
1000
M
1070
     0
1002
{
1002
}
1000
I
1070
     0
1002
{
1002
}
1002
}
1000
GEN-ANSI-ORD
1070
     5
1002
{
1000
NAME
1070
     4
1000
GEN-ANSI$6
1002
{
1002
}
1000
DIMTAD
1070
     1
1070
     0
1002
{
1002
}
1000
DIMTIH
1070
     1
1070
     1
1002
{
1002
}
1000
DIMTOH
1070
     1
1070
     1
1002
{
1002
}
1000
DIMTOLJ
1070
     1
1070
     1
1002
{
1002
}
1000
M
1070
     0
1002
{
1002
}
1000
I
1070
     0
1002
{
1002
}
1002
}
1000
GEN-ANSI-AXE-F
1070
     5
1002
{
1000
NAME
1070
     4
1000
GEN-ANSI-AXE-F
1002
{
1002
}
1000
DIMBLK1
1070
     4
1000
GENAXEH
1002
{
1002
}
1000
DIMSAH
1070
     1
1070
     1
1002
{
1002
}
1000
DIMSE1
1070
     1
1070
     1
1002
{
1002
}
1000
DIMSE2
1070
     1
1070
     1
1002
{
1002
}
1000
DIMTAD
1070
     1
1070
     0
1002
{
1002
}
1000
DIMTIH
1070
     1
1070
     1
1002
{
1002
}
1000
DIMTOH
1070
     1
1070
     1
1002
{
1002
}
1000
DIMTOLJ
1070
     1
1070
     1
1002
{
1002
}
1000
M
1070
     0
1002
{
1002
}
1000
I
1070
     0
1002
{
1002
}
1002
}
1000
GEN-ANSI-AXE-H
1070
     5
1002
{
1000
NAME
1070
     4
1000
GEN-ANSI-AXE-H
1002
{
1002
}
1000
DIMBLK1
1070
     4
1000
GENAXEH
1002
{
1002
}
1000
DIMLFAC
1070
     2
1040
2.0
1002
{
1002
}
1000
DIMSAH
1070
     1
1070
     1
1002
{
1002
}
1000
DIMSE1
1070
     1
1070
     1
1002
{
1002
}
1000
DIMSE2
1070
     1
1070
     1
1002
{
1002
}
1000
DIMTAD
1070
     1
1070
     0
1002
{
1002
}
1000
DIMTOFL
1070
     1
1070
     1
1002
{
1002
}
1000
DIMTOLJ
1070
     1
1070
     1
1002
{
1002
}
1000
M
1070
     0
1002
{
1002
}
1000
I
1070
     0
1002
{
1002
}
1002
}
1002
}
1000
DimSet
1070
     0
1002
{
1000
ChainSum
1070
     3
1070
     0
1002
{
1002
}
1000
DimDclTyp0
1070
     4
1000
dim23
1002
{
1002
}
1000
HorBra
1070
     3
1070
     0
1002
{
1002
}
1000
StrDia
1070
     4
1000
%%c<>
1002
{
1002
}
1000
StrRad
1070
     4
1000
R<>
1002
{
1002
}
1000
TextMinus
1070
     4
1000
<>
1002
{
1002
}
1000
TextPlus
1070
     4
1000
<>
1002
{
1002
}
1000
M
1070
     0
1002
{
1000
DimdliFirst
1070
     2
1040
10.0
1002
{
1002
}
1000
PointMakeDist
1070
     2
1040
10.0
1002
{
1002
}
1002
}
1000
I
1070
     0
1002
{
1000
DimdliFirst
1070
     2
1040
0.5
1002
{
1002
}
1000
PointMakeDist
1070
     2
1040
0.5
1002
{
1002
}
1002
}
1000
FitGrade
1070
     4
1000
h7
1002
{
1002
}
1002
}
1000
Drawing
1070
     0
1002
{
1000
ChamferDimMode
1070
     1
1070
     2
1002
{
1002
}
1000
Gen_Fiso
1070
    -3
1040
1.0
1002
{
1002
}
1000
GenDimStil
1070
     4
1000
ISO
1002
{
1002
}
1000
GenDwgUScale
1070
     2
1040
1.0
1002
{
1002
}
1000
GenInch
1070
     4
1000
M
1002
{
1002
}
1000
GenPlotScale
1070
     4
1000
1:5
1002
{
1002
}
1000
Revisi
1070
     4
1000
0
1002
{
1002
}
1002
}
1000
DwgVar
1070
     0
1002
{
1000
M
1070
     0
1002
{
1002
}
1000
I
1070
     0
1002
{
1002
}
1002
}
1000
Hatch
1070
     0
1002
{
1000
GenHtcFlag
1070
     3
1070
     0
1002
{
1002
}
1002
}
1000
Info_Pos
1070
     0
1002
{
1000
>
1002
}
1000
Layer
1070
     7
1002
{
1000
Defs
1070
     0
1002
{
1000
>
1002
}
1000
EntSort
1070
     0
1002
{
1000
>
1002
}
1000
Match
1070
     0
1002
{
1002
}
1000
Settings
1070
     0
1002
{
1000
FocGrNC
1070
     3
1070
     0
1002
{
1002
}
1000
FocGrLo
1070
     3
1070
     0
1002
{
1002
}
1000
FocLoNC
1070
     3
1070
     0
1002
{
1002
}
1000
FocusCol
1070
     1
1070
   253
1002
{
1002
}
1000
GenStdLG
1070
     4
1000

1002
{
1002
}
1000
LayMatch
1070
     3
1070
     0
1002
{
1002
}
1000
LgOff
1070
     3
1070
     0
1002
{
1002
}
1000
CurLG
1070
    -5
1000

1002
{
1002
}
1002
}
1002
}
1000
LType
1070
     0
1002
{
1000
GEN3
1070
    10
1000
genius.lin
1002
{
1002
}
1000
GEN7
1070
    10
1000
genius.lin
1002
{
1002
}
1000
GEN4A
1070
    10
1000
genius.lin
1002
{
1002
}
1000
GEN3A
1070
    10
1000
genius.lin
1002
{
1002
}
1000
GEN7A
1070
    10
1000
genius.lin
1002
{
1002
}
1000
GENZIGZAG
1070
    10
1000
genius.lin
1002
{
1002
}
1002
}
1000
Objecter
1070
     0
1002
{
1000
CreateGroups
1070
     3
1070
     0
1002
{
1002
}
1000
LaySwitch
1070
     3
1070
     1
1002
{
1002
}
1000
LastObj
1070
    -5
1000
42E7
1002
{
1002
}
1000
TimeStamp
1070
    -5
1000
20030124.14150376
1002
{
1002
}
1002
}
1000
OSWiz
1070
     0
1002
{
1000
Filter
1070
     0
1002
{
1000
HATCH
1070
    11
1002
{
1000
EntityType
1070
     4
1000
LINE
1002
{
1002
}
1000
Layer
1070
     4
1000
8,8N,*-8,*-8N
1002
{
1002
}
1000
Linetype
1070
     4
1000
*
1002
{
1002
}
1000
Color
1070
     4
1000
*
1002
{
1002
}
1000
ApplyInDims
1070
     3
1070
     1
1002
{
1002
}
1002
}
1000
SYMBOLS
1070
    11
1002
{
1000
EntityType
1070
     4
1000
*
1002
{
1002
}
1000
Layer
1070
     4
1000
[5-6],[5-6]N,*-[5-6],*-[5-6]N
1002
{
1002
}
1000
Linetype
1070
     4
1000
*
1002
{
1002
}
1000
Color
1070
     4
1000
*
1002
{
1002
}
1000
ApplyInDims
1070
     3
1070
     1
1002
{
1002
}
1002
}
1000
FEM
1070
    11
1002
{
1000
EntityType
1070
     4
1000
*
1002
{
1002
}
1000
Layer
1070
     4
1000
4A,4AN,*-4A,*-4AN
1002
{
1002
}
1000
Linetype
1070
     4
1000
*
1002
{
1002
}
1000
Color
1070
     4
1000
*
1002
{
1002
}
1000
ApplyInDims
1070
     3
1070
     1
1002
{
1002
}
1002
}
1002
}
1002
}
1000
PaList
1070
     0
1002
{
1000
AutoUpdatePartList
1070
     1
1070
     0
1002
{
1002
}
1000
ReadInfoPoint
1070
     3
1070
     0
1002
{
1002
}
1000
ReadPosNr
1070
     3
1070
     1
1002
{
1002
}
1000
RevStr
1070
     4
1000
0
1002
{
1002
}
1002
}
1000
Paper
1070
     0
1002
{
1002
}
1000
PartDB
1070
     0
1002
{
1000
GenDbOwner
1070
     4
1000

1002
{
1002
}
1002
}
1000
System
1070
     0
1002
{
1002
}
1000
Title
1070
     0
1002
{
1000
MakeView
1070
     1
1070
     2
1002
{
1002
}
1002
}
1000
Tools
1070
     0
1002
{
1000
Trans
1070
     0
1002
{
1000
Drawingtranslation
1070
    -4
1070
     1
1002
{
1002
}
1000
upreserve
1070
     3
1070
     0
1002
{
1002
}
1000
originally_on
1070
    -4
1070
     0
1002
{
1002
}
1000
sourcelang
1070
    -5
1000
D
1002
{
1002
}
1002
}
1002
}
  0
APPID
  5
475B
330
471B
100
AcDbSymbolTableRecord
100
AcDbRegAppTableRecord
  2
GEV_VCCNULL_SWITCH_OFF
 70
     0
  0
APPID
  5
475C
330
471B
100
AcDbSymbolTableRecord
100
AcDbRegAppTableRecord
  2
GENIUS_GENDTOL_13
 70
     0
  0
APPID
  5
475D
330
471B
100
AcDbSymbolTableRecord
100
AcDbRegAppTableRecord
  2
GENIUS_GENREC_13
 70
     0
  0
APPID
  5
475E
330
471B
100
AcDbSymbolTableRecord
100
AcDbRegAppTableRecord
  2
GENIUS_GENOBJ-N-REC_13
 70
     0
  0
APPID
  5
475F
330
471B
100
AcDbSymbolTableRecord
100
AcDbRegAppTableRecord
  2
GENIUS_GENOBJ-N-CRS_13
 70
     0
  0
APPID
  5
4760
330
471B
100
AcDbSymbolTableRecord
100
AcDbRegAppTableRecord
  2
GENIUS_GEFCFG0_13
 70
     0
  0
APPID
  5
4790
330
471B
100
AcDbSymbolTableRecord
100
AcDbRegAppTableRecord
  2
MCAD_NO_VIS
 70
     0
  0
APPID
  5
4791
330
471B
100
AcDbSymbolTableRecord
100
AcDbRegAppTableRecord
  2
ACAD_TEMP_GRAPHIC
 70
     0
  0
APPID
  5
47C1
330
471B
100
AcDbSymbolTableRecord
100
AcDbRegAppTableRecord
  2
AD_DRAW
 70
     0
  0
APPID
  5
47C4
330
471B
100
AcDbSymbolTableRecord
100
AcDbRegAppTableRecord
  2
ACATTRIBSERVICES
 70
     0
  0
APPID
  5
47E4
330
471B
100
AcDbSymbolTableRecord
100
AcDbRegAppTableRecord
  2
DESIGNERASSEMBLIES
 70
     0
  0
APPID
  5
47EA
330
471B
100
AcDbSymbolTableRecord
100
AcDbRegAppTableRecord
  2
ACADM_DIM_EDIT
 70
     0
  0
APPID
  5
47EB
330
471B
100
AcDbSymbolTableRecord
100
AcDbRegAppTableRecord
  2
AMDT_DM_ADJ
 70
     0
  0
APPID
  5
481D
330
471B
100
AcDbSymbolTableRecord
100
AcDbRegAppTableRecord
  2
ACAD_DSTYLE_DIMARC_LENGTH_SYMBOL
 70
     0
  0
APPID
  5
481E
330
471B
100
AcDbSymbolTableRecord
100
AcDbRegAppTableRecord
  2
ACAD_DSTYLE_DIMJOGGED_JOGANGLE_SYMBOL
 70
     0
  0
APPID
  5
4851
330
471B
100
AcDbSymbolTableRecord
100
AcDbRegAppTableRecord
  2
GENIUS_GENSCREG_15
 70
     0
  0
APPID
  5
4852
330
471B
100
AcDbSymbolTableRecord
100
AcDbRegAppTableRecord
  2
GENIUS_GENOBJ-N-SDF_13
 70
     0
  0
ENDTAB
  0
TABLE
  2
DIMSTYLE
  5
471C
330
0
100
AcDbSymbolTable
 70
     8
100
AcDbDimStyleTable
 71
     0
  0
DIMSTYLE
105
4761
102
{ACAD_REACTORS
330
4304
330
4320
330
4347
330
4571
330
458D
330
45B6
330
45E1
330
4608
330
4645
330
4682
102
}
330
471C
100
AcDbSymbolTableRecord
100
AcDbDimStyleTableRecord
  2
GEN-ISO
 70
     0
  3
<>
 40
5.0
 41
2.5
 42
1.0
 43
7.0
 44
1.0
 47
0.1
 48
0.1
 73
     0
 74
     0
 77
     1
 78
     8
140
3.5
141
0.0
143
0.03937
146
0.71
147
0.6
172
     1
176
   256
177
   256
178
     2
271
     2
272
     2
284
     8
285
     8
286
     8
340
4721
  0
DIMSTYLE
105
481C
330
471C
100
AcDbSymbolTableRecord
100
AcDbDimStyleTableRecord
  2
AM_DIN
 70
     0
  4
"
 41
2.5
 42
1.0
 43
10.0
 44
1.0
 47
0.1
 48
0.1
 73
     0
 74
     0
 77
     1
 78
     8
 79
     2
140
3.5
141
0.0
143
0.0393701
146
0.71
147
1.5
172
     1
176
   256
177
   256
178
     2
271
     2
272
     3
274
     4
283
     0
284
     8
340
4721
371
    -1
372
    -1
1001
ACAD_DSTYLE_DIMARC_LENGTH_SYMBOL
1070
   379
1070
     0
1001
ACAD_DSTYLE_DIMJOGGED_JOGANGLE_SYMBOL
1070
   384
1040
1.570796326794896
  0
DIMSTYLE
105
482D
330
471C
100
AcDbSymbolTableRecord
100
AcDbDimStyleTableRecord
  2
AM_DIN$3
 70
     0
  4
"
 41
2.5
 42
1.0
 43
10.0
 44
1.0
 47
0.1
 48
0.1
 73
     0
 77
     1
 78
     8
 79
     2
140
3.5
141
0.0
143
0.0393701
146
0.71
147
1.5
176
   256
177
   256
178
     2
271
     2
272
     3
274
     4
283
     0
284
     8
288
     1
289
     0
340
4721
371
    -1
372
    -1
1001
ACAD_DSTYLE_DIMARC_LENGTH_SYMBOL
1070
   379
1070
     0
1001
ACAD_DSTYLE_DIMJOGGED_JOGANGLE_SYMBOL
1070
   384
1040
1.570796326794896
  0
DIMSTYLE
105
4832
330
471C
100
AcDbSymbolTableRecord
100
AcDbDimStyleTableRecord
  2
AM_DIN$4
 70
     0
  4
"
 41
2.5
 42
1.0
 43
10.0
 44
1.0
 47
0.1
 48
0.1
 73
     0
 77
     1
 78
     8
 79
     2
140
3.5
141
0.0
143
0.0393701
146
0.71
147
1.5
176
   256
177
   256
178
     2
271
     2
272
     3
274
     4
283
     0
284
     8
288
     1
289
     0
340
4721
371
    -1
372
    -1
1001
ACAD_DSTYLE_DIMARC_LENGTH_SYMBOL
1070
   379
1070
     0
1001
ACAD_DSTYLE_DIMJOGGED_JOGANGLE_SYMBOL
1070
   384
1040
1.570796326794896
  0
DIMSTYLE
105
4837
330
471C
100
AcDbSymbolTableRecord
100
AcDbDimStyleTableRecord
  2
AM_DIN$6
 70
     0
  4
"
 41
2.5
 42
1.0
 43
10.0
 44
1.0
 47
0.1
 48
0.1
 73
     0
 74
     0
 78
     8
 79
     2
140
3.5
141
0.0
143
0.0393701
146
0.71
147
1.5
172
     1
176
   256
177
   256
178
     2
271
     2
272
     3
274
     4
283
     0
284
     8
340
4721
371
    -1
372
    -1
1001
ACAD_DSTYLE_DIMARC_LENGTH_SYMBOL
1070
   379
1070
     0
1001
ACAD_DSTYLE_DIMJOGGED_JOGANGLE_SYMBOL
1070
   384
1040
1.570796326794896
  0
DIMSTYLE
105
483C
330
471C
100
AcDbSymbolTableRecord
100
AcDbDimStyleTableRecord
  2
AM_DIN$7
 70
     0
  4
"
 41
2.5
 42
1.0
 43
10.0
 44
1.0
 47
0.1
 48
0.1
 73
     0
 74
     0
 77
     1
 78
     8
 79
     2
140
5.0
141
0.0
143
0.0393701
146
0.71
147
1.5
172
     1
176
   256
177
   256
178
     2
271
     2
272
     3
274
     4
283
     0
284
     8
340
4721
371
    -1
372
    -1
1001
ACAD_DSTYLE_DIMARC_LENGTH_SYMBOL
1070
   379
1070
     0
1001
ACAD_DSTYLE_DIMJOGGED_JOGANGLE_SYMBOL
1070
   384
1040
1.570796326794896
  0
DIMSTYLE
105
4841
330
471C
100
AcDbSymbolTableRecord
100
AcDbDimStyleTableRecord
  2
AM_DIN$SF
 70
     0
  4
"
 41
2.5
 42
1.0
 43
10.0
 44
1.0
 47
0.1
 48
0.1
 73
     0
 74
     0
 75
     1
 76
     1
 77
     1
 78
     8
 79
     2
140
3.5
141
0.0
143
0.0393701
146
0.71
147
1.5
172
     1
176
   256
177
   256
178
     2
271
     2
272
     3
274
     4
283
     0
284
     8
340
4721
371
    -1
372
    -1
1001
ACAD_DSTYLE_DIMARC_LENGTH_SYMBOL
1070
   379
1070
     0
1001
ACAD_DSTYLE_DIMJOGGED_JOGANGLE_SYMBOL
1070
   384
1040
1.570796326794896
  0
DIMSTYLE
105
484A
330
471C
100
AcDbSymbolTableRecord
100
AcDbDimStyleTableRecord
  2
AM_DIN$SH
 70
     0
  4
"
 41
2.5
 42
1.0
 43
10.0
 44
1.0
 47
0.1
 48
0.1
 73
     0
 74
     0
 75
     1
 76
     1
 77
     1
 78
     8
 79
     2
140
3.5
141
0.0
143
0.0393701
144
2.0
146
0.71
147
1.5
172
     1
173
     1
176
   256
177
   256
178
     2
271
     2
272
     3
274
     4
283
     0
284
     8
340
4721
343
4842
371
    -1
372
    -1
1001
ACAD_DSTYLE_DIMARC_LENGTH_SYMBOL
1070
   379
1070
     0
1001
ACAD_DSTYLE_DIMJOGGED_JOGANGLE_SYMBOL
1070
   384
1040
1.570796326794896
  0
ENDTAB
  0
TABLE
  2
BLOCK_RECORD
  5
4713
330
0
100
AcDbSymbolTable
 70
    20
  0
BLOCK_RECORD
  5
4729
330
4713
100
AcDbSymbolTableRecord
100
AcDbBlockTableRecord
  2
*MODEL_SPACE
340
4788
  0
BLOCK_RECORD
  5
4726
330
4713
100
AcDbSymbolTableRecord
100
AcDbBlockTableRecord
  2
*PAPER_SPACE
340
4789
  0
BLOCK_RECORD
  5
4731
330
4713
100
AcDbSymbolTableRecord
100
AcDbBlockTableRecord
  2
*D0
340
0
  0
BLOCK_RECORD
  5
4732
330
4713
100
AcDbSymbolTableRecord
100
AcDbBlockTableRecord
  2
*D1
340
0
  0
BLOCK_RECORD
  5
4733
330
4713
100
AcDbSymbolTableRecord
100
AcDbBlockTableRecord
  2
*D2
340
0
  0
BLOCK_RECORD
  5
4734
330
4713
100
AcDbSymbolTableRecord
100
AcDbBlockTableRecord
  2
*X3
340
0
102
{BLKREFS
331
445F
102
}
  0
BLOCK_RECORD
  5
4735
330
4713
100
AcDbSymbolTableRecord
100
AcDbBlockTableRecord
  2
*X4
340
0
102
{BLKREFS
331
44B9
102
}
  0
BLOCK_RECORD
  5
4736
330
4713
100
AcDbSymbolTableRecord
100
AcDbBlockTableRecord
  2
*X5
340
0
102
{BLKREFS
331
44D0
102
}
  0
BLOCK_RECORD
  5
4737
330
4713
100
AcDbSymbolTableRecord
100
AcDbBlockTableRecord
  2
*X6
340
0
102
{BLKREFS
331
4505
102
}
  0
BLOCK_RECORD
  5
4738
330
4713
100
AcDbSymbolTableRecord
100
AcDbBlockTableRecord
  2
*X7
340
0
102
{BLKREFS
331
4516
102
}
  0
BLOCK_RECORD
  5
4739
330
4713
100
AcDbSymbolTableRecord
100
AcDbBlockTableRecord
  2
*X8
340
0
102
{BLKREFS
331
4523
102
}
  0
BLOCK_RECORD
  5
473A
330
4713
100
AcDbSymbolTableRecord
100
AcDbBlockTableRecord
  2
*X9
340
0
102
{BLKREFS
331
4532
102
}
  0
BLOCK_RECORD
  5
473B
330
4713
100
AcDbSymbolTableRecord
100
AcDbBlockTableRecord
  2
*X10
340
0
102
{BLKREFS
331
454C
102
}
  0
BLOCK_RECORD
  5
473C
330
4713
100
AcDbSymbolTableRecord
100
AcDbBlockTableRecord
  2
*D11
340
0
  0
BLOCK_RECORD
  5
473D
330
4713
100
AcDbSymbolTableRecord
100
AcDbBlockTableRecord
  2
*D12
340
0
  0
BLOCK_RECORD
  5
473E
330
4713
100
AcDbSymbolTableRecord
100
AcDbBlockTableRecord
  2
*D13
340
0
  0
BLOCK_RECORD
  5
473F
330
4713
100
AcDbSymbolTableRecord
100
AcDbBlockTableRecord
  2
*D14
340
0
  0
BLOCK_RECORD
  5
4740
330
4713
100
AcDbSymbolTableRecord
100
AcDbBlockTableRecord
  2
*D15
340
0
  0
BLOCK_RECORD
  5
4741
330
4713
100
AcDbSymbolTableRecord
100
AcDbBlockTableRecord
  2
*D16
340
0
  0
BLOCK_RECORD
  5
4742
330
4713
100
AcDbSymbolTableRecord
100
AcDbBlockTableRecord
  2
*D17
340
0
  0
BLOCK_RECORD
  5
4842
330
4713
100
AcDbSymbolTableRecord
100
AcDbBlockTableRecord
  2
GENAXEH
340
0
  0
ENDTAB
  0
ENDSEC
  0
SECTION
  2
BLOCKS
  0
BLOCK
  5
4773
330
4729
100
AcDbEntity
  8
0
100
AcDbBlockBegin
  2
*MODEL_SPACE
 70
     0
 10
0.0
 20
0.0
 30
0.0
  3
*MODEL_SPACE
  1

  0
ENDBLK
  5
4774
330
4729
100
AcDbEntity
  8
0
100
AcDbBlockEnd
  0
BLOCK
  5
4771
330
4726
100
AcDbEntity
 67
     1
  8
0
100
AcDbBlockBegin
  2
*PAPER_SPACE
 70
     0
 10
0.0
 20
0.0
 30
0.0
  3
*PAPER_SPACE
  1

  0
ENDBLK
  5
4772
330
4726
100
AcDbEntity
 67
     1
  8
0
100
AcDbBlockEnd
  0
BLOCK
  5
4305
330
4731
100
AcDbEntity
  8
0
100
AcDbBlockBegin
  2
*D0
 70
     1
 10
0.0
 20
0.0
 30
0.0
  3
*D0
  1
GEVFRAME
  0
LINE
  5
4306
330
4731
100
AcDbEntity
  8
0
  6
ByBlock
100
AcDbLine
 10
774.825541
 20
1143.439468
 30
0.0
 11
774.825541
 21
1170.25923
 31
0.0
  0
LINE
  5
4307
330
4731
100
AcDbEntity
  8
0
  6
ByBlock
100
AcDbLine
 10
932.825541
 20
1143.439468
 30
0.0
 11
932.825541
 21
1170.25923
 31
0.0
  0
LINE
  5
4308
330
4731
100
AcDbEntity
  8
0
  6
ByBlock
100
AcDbLine
 10
787.325541
 20
1165.25923
 30
0.0
 11
920.325541
 21
1165.25923
 31
0.0
  0
SOLID
  5
4309
330
4731
100
AcDbEntity
  8
0
  6
ByBlock
100
AcDbTrace
 10
787.325541
 20
1167.342563
 30
0.0
 11
787.325541
 21
1163.175896
 31
0.0
 12
774.825541
 22
1165.25923
 32
0.0
 13
774.825541
 23
1165.25923
 33
0.0
  0
SOLID
  5
430A
330
4731
100
AcDbEntity
  8
0
  6
ByBlock
100
AcDbTrace
 10
920.325541
 20
1167.342563
 30
0.0
 11
920.325541
 21
1163.175896
 31
0.0
 12
932.825541
 22
1165.25923
 32
0.0
 13
932.825541
 23
1165.25923
 33
0.0
  0
TEXT
  5
430B
330
4731
100
AcDbEntity
  8
0
  6
ByBlock
 62
     2
100
AcDbText
 10
837.2005409999999
 20
1168.25923
 30
0.0
 40
17.5
  1
158
100
AcDbText
  0
POINT
  5
430C
330
4731
100
AcDbEntity
  8
DEFPOINTS
  6
ByBlock
 62
     0
100
AcDbPoint
 10
774.825541
 20
1138.439468
 30
0.0
  0
POINT
  5
430D
330
4731
100
AcDbEntity
  8
DEFPOINTS
  6
ByBlock
 62
     0
100
AcDbPoint
 10
932.825541
 20
1138.439468
 30
0.0
  0
POINT
  5
430E
330
4731
100
AcDbEntity
  8
DEFPOINTS
  6
ByBlock
 62
     0
100
AcDbPoint
 10
932.825541
 20
1165.25923
 30
0.0
  0
ENDBLK
  5
430F
330
4731
100
AcDbEntity
  8
0
100
AcDbBlockEnd
  0
BLOCK
  5
435E
330
4732
100
AcDbEntity
  8
0
100
AcDbBlockBegin
  2
*D1
 70
     1
 10
0.0
 20
0.0
 30
0.0
  3
*D1
  1
GEVFRAME
  0
LINE
  5
435F
330
4732
100
AcDbEntity
  8
0
  6
ByBlock
100
AcDbLine
 10
931.825541
 20
986.439468
 30
0.0
 11
982.0958349999999
 21
986.439468
 31
0.0
  0
LINE
  5
4360
330
4732
100
AcDbEntity
  8
0
  6
ByBlock
100
AcDbLine
 10
931.825541
 20
1144.439468
 30
0.0
 11
982.0958349999999
 21
1144.439468
 31
0.0
  0
LINE
  5
4361
330
4732
100
AcDbEntity
  8
0
  6
ByBlock
100
AcDbLine
 10
977.0958349999999
 20
998.939468
 30
0.0
 11
977.0958349999999
 21
1131.939468
 31
0.0
  0
SOLID
  5
4362
330
4732
100
AcDbEntity
  8
0
  6
ByBlock
100
AcDbTrace
 10
975.0125019999998
 20
998.939468
 30
0.0
 11
979.179169
 21
998.939468
 31
0.0
 12
977.0958349999999
 22
986.439468
 32
0.0
 13
977.0958349999999
 23
986.439468
 33
0.0
  0
SOLID
  5
4363
330
4732
100
AcDbEntity
  8
0
  6
ByBlock
100
AcDbTrace
 10
975.0125019999998
 20
1131.939468
 30
0.0
 11
979.179169
 21
1131.939468
 31
0.0
 12
977.0958349999999
 22
1144.439468
 32
0.0
 13
977.0958349999999
 23
1144.439468
 33
0.0
  0
TEXT
  5
4364
330
4732
100
AcDbEntity
  8
0
  6
ByBlock
 62
     2
100
AcDbText
 10
974.0958349999999
 20
1048.814468
 30
0.0
 40
17.5
  1
158
 50
90.0
100
AcDbText
  0
POINT
  5
4365
330
4732
100
AcDbEntity
  8
DEFPOINTS
  6
ByBlock
 62
     0
100
AcDbPoint
 10
926.825541
 20
986.439468
 30
0.0
  0
POINT
  5
4366
330
4732
100
AcDbEntity
  8
DEFPOINTS
  6
ByBlock
 62
     0
100
AcDbPoint
 10
926.825541
 20
1144.439468
 30
0.0
  0
POINT
  5
4367
330
4732
100
AcDbEntity
  8
DEFPOINTS
  6
ByBlock
 62
     0
100
AcDbPoint
 10
977.0958349999999
 20
1144.439468
 30
0.0
  0
ENDBLK
  5
4368
330
4732
100
AcDbEntity
  8
0
100
AcDbBlockEnd
  0
BLOCK
  5
4353
330
4733
100
AcDbEntity
  8
0
100
AcDbBlockBegin
  2
*D2
 70
     1
 10
0.0
 20
0.0
 30
0.0
  3
*D2
  1
GEVFRAME
  0
LINE
  5
4354
330
4733
100
AcDbEntity
  8
0
  6
ByBlock
100
AcDbLine
 10
692.825541
 20
1147.939468
 30
0.0
 11
592.1071389999999
 21
1147.939468
 31
0.0
  0
LINE
  5
4355
330
4733
100
AcDbEntity
  8
0
  6
ByBlock
100
AcDbLine
 10
692.825541
 20
982.939468
 30
0.0
 11
592.1071389999999
 21
982.939468
 31
0.0
  0
LINE
  5
4356
330
4733
100
AcDbEntity
  8
0
  6
ByBlock
100
AcDbLine
 10
597.1071389999999
 20
1135.439468
 30
0.0
 11
597.1071389999999
 21
995.439468
 31
0.0
  0
SOLID
  5
4357
330
4733
100
AcDbEntity
  8
0
  6
ByBlock
100
AcDbTrace
 10
595.0238049999999
 20
1135.439468
 30
0.0
 11
599.1904719999999
 21
1135.439468
 31
0.0
 12
597.1071389999999
 22
1147.939468
 32
0.0
 13
597.1071389999999
 23
1147.939468
 33
0.0
  0
SOLID
  5
4358
330
4733
100
AcDbEntity
  8
0
  6
ByBlock
100
AcDbTrace
 10
595.0238049999999
 20
995.439468
 30
0.0
 11
599.1904719999999
 21
995.439468
 31
0.0
 12
597.1071389999999
 22
982.939468
 32
0.0
 13
597.1071389999999
 23
982.939468
 33
0.0
  0
TEXT
  5
4359
330
4733
100
AcDbEntity
  8
0
  6
ByBlock
 62
     2
100
AcDbText
 10
594.1071389999999
 20
1048.452031
 30
0.0
 40
17.5
  1
165
 50
90.0
100
AcDbText
  0
POINT
  5
435A
330
4733
100
AcDbEntity
  8
DEFPOINTS
  6
ByBlock
 62
     0
100
AcDbPoint
 10
697.825541
 20
1147.939468
 30
0.0
  0
POINT
  5
435B
330
4733
100
AcDbEntity
  8
DEFPOINTS
  6
ByBlock
 62
     0
100
AcDbPoint
 10
697.825541
 20
982.939468
 30
0.0
  0
POINT
  5
435C
330
4733
100
AcDbEntity
  8
DEFPOINTS
  6
ByBlock
 62
     0
100
AcDbPoint
 10
597.1071389999999
 20
982.939468
 30
0.0
  0
ENDBLK
  5
435D
330
4733
100
AcDbEntity
  8
0
100
AcDbBlockEnd
  0
BLOCK
  5
445E
330
4734
100
AcDbEntity
  8
0
100
AcDbBlockBegin
  2
*X3
 70
     1
 10
0.0
 20
0.0
 30
0.0
  3
*X3
  1
GEVFRAME
  0
LINE
  5
4460
330
4734
100
AcDbEntity
  8
0
 62
     0
100
AcDbLine
 10
706.4546679999999
 20
1360.52844
 30
0.0
 11
710.275973
 21
1364.349746
 31
0.0
  0
LINE
  5
4461
330
4734
100
AcDbEntity
  8
0
 62
     0
100
AcDbLine
 10
693.8711819999999
 20
1365.622624
 30
0.0
 11
697.6952650000001
 21
1369.446707
 31
0.0
  0
LINE
  5
4462
330
4734
100
AcDbEntity
  8
0
 62
     0
100
AcDbLine
 10
681.2876959999999
 20
1370.716807
 30
0.0
 11
685.1145559999999
 21
1374.543667
 31
0.0
  0
LINE
  5
4463
330
4734
100
AcDbEntity
  8
0
 62
     0
100
AcDbLine
 10
668.70421
 20
1375.810991
 30
0.0
 11
672.5338469999999
 21
1379.640628
 31
0.0
  0
LINE
  5
4464
330
4734
100
AcDbEntity
  8
0
 62
     0
100
AcDbLine
 10
656.1207239999999
 20
1380.905175
 30
0.0
 11
659.953138
 21
1384.737588
 31
0.0
  0
LINE
  5
4465
330
4734
100
AcDbEntity
  8
0
 62
     0
100
AcDbLine
 10
643.9704759999999
 20
1386.432596
 30
0.0
 11
647.592604
 21
1390.054724
 31
0.0
  0
LINE
  5
4466
330
4734
100
AcDbEntity
  8
0
 62
     0
100
AcDbLine
 10
635.2216429999999
 20
1395.361432
 30
0.0
 11
638.862869
 21
1399.002658
 31
0.0
  0
LINE
  5
4467
330
4734
100
AcDbEntity
  8
0
 62
     0
100
AcDbLine
 10
630.658776
 20
1408.476236
 30
0.0
 11
634.541229
 21
1412.358688
 31
0.0
  0
LINE
  5
4468
330
4734
100
AcDbEntity
  8
0
 62
     0
100
AcDbLine
 10
619.762274
 20
1415.257403
 30
0.0
 11
623.4905209999999
 21
1418.98565
 31
0.0
  0
LINE
  5
4469
330
4734
100
AcDbEntity
  8
0
 62
     0
100
AcDbLine
 10
616.825541
 20
1429.998339
 30
0.0
 11
621.825541
 21
1434.998339
 31
0.0
  0
LINE
  5
446A
330
4734
100
AcDbEntity
  8
0
 62
     0
100
AcDbLine
 10
616.825541
 20
1447.676008
 30
0.0
 11
621.825541
 21
1452.676008
 31
0.0
  0
LINE
  5
446B
330
4734
100
AcDbEntity
  8
0
 62
     0
100
AcDbLine
 10
616.825541
 20
1465.353678
 30
0.0
 11
621.825541
 21
1470.353678
 31
0.0
  0
LINE
  5
446C
330
4734
100
AcDbEntity
  8
0
 62
     0
100
AcDbLine
 10
719.0381539999999
 20
1355.434257
 30
0.0
 11
722.856682
 21
1359.252785
 31
0.0
  0
LINE
  5
446D
330
4734
100
AcDbEntity
  8
0
 62
     0
100
AcDbLine
 10
731.62164
 20
1350.340073
 30
0.0
 11
735.437391
 21
1354.155825
 31
0.0
  0
LINE
  5
446E
330
4734
100
AcDbEntity
  8
0
 62
     0
100
AcDbLine
 10
744.2051259999999
 20
1345.24589
 30
0.0
 11
748.0180999999999
 21
1349.058864
 31
0.0
  0
LINE
  5
446F
330
4734
100
AcDbEntity
  8
0
 62
     0
100
AcDbLine
 10
756.788612
 20
1340.151706
 30
0.0
 11
760.5988089999999
 21
1343.961904
 31
0.0
  0
LINE
  5
4470
330
4734
100
AcDbEntity
  8
0
 62
     0
100
AcDbLine
 10
769.3720980000001
 20
1335.057523
 30
0.0
 11
773.1795179999999
 21
1338.864943
 31
0.0
  0
LINE
  5
4471
330
4734
100
AcDbEntity
  8
0
 62
     0
100
AcDbLine
 10
780.1224829999999
 20
1328.130238
 30
0.0
 11
783.8849190000001
 21
1331.892675
 31
0.0
  0
LINE
  5
4472
330
4734
100
AcDbEntity
  8
0
 62
     0
100
AcDbLine
 10
790.761233
 20
1321.091319
 30
0.0
 11
794.4500849999999
 21
1324.780171
 31
0.0
  0
LINE
  5
4473
330
4734
100
AcDbEntity
  8
0
 62
     0
100
AcDbLine
 10
794.825541
 20
1307.477957
 30
0.0
 11
799.825541
 21
1312.477957
 31
0.0
  0
LINE
  5
4474
330
4734
100
AcDbEntity
  8
0
 62
     0
100
AcDbLine
 10
794.825541
 20
1289.800287
 30
0.0
 11
799.825541
 21
1294.800287
 31
0.0
  0
LINE
  5
4475
330
4734
100
AcDbEntity
  8
0
 62
     0
100
AcDbLine
 10
794.825541
 20
1272.122618
 30
0.0
 11
799.825541
 21
1277.122618
 31
0.0
  0
LINE
  5
4476
330
4734
100
AcDbEntity
  8
0
 62
     0
100
AcDbLine
 10
794.825541
 20
1254.444948
 30
0.0
 11
799.825541
 21
1259.444948
 31
0.0
  0
ENDBLK
  5
4477
330
4734
100
AcDbEntity
  8
0
100
AcDbBlockEnd
  0
BLOCK
  5
44B8
330
4735
100
AcDbEntity
  8
0
100
AcDbBlockBegin
  2
*X4
 70
     1
 10
0.0
 20
0.0
 30
0.0
  3
*X4
  1
GEVFRAME
  0
LINE
  5
44BA
330
4735
100
AcDbEntity
  8
0
 62
     0
100
AcDbLine
 10
923.952369
 20
1348.216437
 30
0.0
 11
929.0355009999998
 21
1353.29957
 31
0.0
  0
LINE
  5
44BB
330
4735
100
AcDbEntity
  8
0
 62
     0
100
AcDbLine
 10
924.233788
 20
1366.175526
 30
0.0
 11
929.318368
 21
1371.260106
 31
0.0
  0
LINE
  5
44BC
330
4735
100
AcDbEntity
  8
0
 62
     0
100
AcDbLine
 10
924.5152070000001
 20
1384.134615
 30
0.0
 11
929.6012349999999
 21
1389.220643
 31
0.0
  0
LINE
  5
44BD
330
4735
100
AcDbEntity
  8
0
 62
     0
100
AcDbLine
 10
924.7966269999999
 20
1402.093704
 30
0.0
 11
929.884103
 21
1407.18118
 31
0.0
  0
LINE
  5
44BE
330
4735
100
AcDbEntity
  8
0
 62
     0
100
AcDbLine
 10
925.0780460000001
 20
1420.052793
 30
0.0
 11
930.1669699999999
 21
1425.141717
 31
0.0
  0
LINE
  5
44BF
330
4735
100
AcDbEntity
  8
0
 62
     0
100
AcDbLine
 10
925.359465
 20
1438.011882
 30
0.0
 11
930.4498369999999
 21
1443.102253
 31
0.0
  0
LINE
  5
44C0
330
4735
100
AcDbEntity
  8
0
 62
     0
100
AcDbLine
 10
925.640884
 20
1455.97097
 30
0.0
 11
930.7327039999998
 21
1461.06279
 31
0.0
  0
LINE
  5
44C1
330
4735
100
AcDbEntity
  8
0
 62
     0
100
AcDbLine
 10
925.922304
 20
1473.930059
 30
0.0
 11
930.9496349999999
 21
1478.957391
 31
0.0
  0
LINE
  5
44C2
330
4735
100
AcDbEntity
  8
0
 62
     0
100
AcDbLine
 10
907.825541
 20
1314.41194
 30
0.0
 11
928.7526339999999
 21
1335.339033
 31
0.0
  0
LINE
  5
44C3
330
4735
100
AcDbEntity
  8
0
 62
     0
100
AcDbLine
 10
907.825541
 20
1296.73427
 30
0.0
 11
912.8255410000001
 21
1301.73427
 31
0.0
  0
LINE
  5
44C4
330
4735
100
AcDbEntity
  8
0
 62
     0
100
AcDbLine
 10
907.825541
 20
1279.056601
 30
0.0
 11
912.8255410000001
 21
1284.056601
 31
0.0
  0
LINE
  5
44C5
330
4735
100
AcDbEntity
  8
0
 62
     0
100
AcDbLine
 10
907.825541
 20
1261.378931
 30
0.0
 11
912.8255410000001
 21
1266.378931
 31
0.0
  0
LINE
  5
44C6
330
4735
100
AcDbEntity
  8
0
 62
     0
100
AcDbLine
 10
908.0816699999999
 20
1243.957391
 30
0.0
 11
912.8255410000001
 21
1248.701262
 31
0.0
  0
ENDBLK
  5
44C7
330
4735
100
AcDbEntity
  8
0
100
AcDbBlockEnd
  0
BLOCK
  5
44CF
330
4736
100
AcDbEntity
  8
0
100
AcDbBlockBegin
  2
*X5
 70
     1
 10
0.0
 20
0.0
 30
0.0
  3
*X5
  1
GEVFRAME
  0
LINE
  5
44D1
330
4736
100
AcDbEntity
  8
0
 62
     0
100
AcDbLine
 10
785.825541
 20
1439.899313
 30
0.0
 11
793.3255410000001
 21
1447.399313
 31
0.0
  0
LINE
  5
44D2
330
4736
100
AcDbEntity
  8
0
 62
     0
100
AcDbLine
 10
785.825541
 20
1457.576983
 30
0.0
 11
793.3255410000001
 21
1465.076983
 31
0.0
  0
LINE
  5
44D3
330
4736
100
AcDbEntity
  8
0
 62
     0
100
AcDbLine
 10
785.825541
 20
1475.254652
 30
0.0
 11
789.528279
 21
1478.957391
 31
0.0
  0
LINE
  5
44D4
330
4736
100
AcDbEntity
  8
0
 62
     0
100
AcDbLine
 10
785.825541
 20
1422.221644
 30
0.0
 11
793.3255410000001
 21
1429.721644
 31
0.0
  0
ENDBLK
  5
44D5
330
4736
100
AcDbEntity
  8
0
100
AcDbBlockEnd
  0
BLOCK
  5
4504
330
4737
100
AcDbEntity
  8
0
100
AcDbBlockBegin
  2
*X6
 70
     1
 10
0.0
 20
0.0
 30
0.0
  3
*X6
  1
GEVFRAME
  0
LINE
  5
4506
330
4737
100
AcDbEntity
  8
0
 62
     0
100
AcDbLine
 10
860.9939890000001
 20
1315.480683
 30
0.0
 11
858.571916
 21
1317.902757
 31
0.0
  0
LINE
  5
4507
330
4737
100
AcDbEntity
  8
0
 62
     0
100
AcDbLine
 10
841.636566
 20
1315.746224
 30
0.0
 11
838.927383
 21
1318.455406
 31
0.0
  0
LINE
  5
4508
330
4737
100
AcDbEntity
  8
0
 62
     0
100
AcDbLine
 10
819.7558049999999
 20
1318.535101
 30
0.0
 11
816.5695969999999
 21
1321.721309
 31
0.0
  0
LINE
  5
4509
330
4737
100
AcDbEntity
  8
0
 62
     0
100
AcDbLine
 10
793.722945
 20
1325.476079
 30
0.0
 11
791.5920599999999
 21
1327.606963
 31
0.0
  0
LINE
  5
450A
330
4737
100
AcDbEntity
  8
0
 62
     0
100
AcDbLine
 10
878.5505979999999
 20
1317.015958
 30
0.0
 11
876.3209470000001
 21
1319.245609
 31
0.0
  0
LINE
  5
450B
330
4737
100
AcDbEntity
  8
0
 62
     0
100
AcDbLine
 10
894.7013810000001
 20
1319.957058
 30
0.0
 11
892.6085910000001
 21
1322.049848
 31
0.0
  0
LINE
  5
450C
330
4737
100
AcDbEntity
  8
0
 62
     0
100
AcDbLine
 10
909.6883869999999
 20
1324.061935
 30
0.0
 11
907.696224
 21
1326.054098
 31
0.0
  0
ENDBLK
  5
450D
330
4737
100
AcDbEntity
  8
0
100
AcDbBlockEnd
  0
BLOCK
  5
4515
330
4738
100
AcDbEntity
  8
0
100
AcDbBlockBegin
  2
*X7
 70
     1
 10
0.0
 20
0.0
 30
0.0
  3
*X7
  1
GEVFRAME
  0
LINE
  5
4517
330
4738
100
AcDbEntity
  8
0
 62
     0
100
AcDbLine
 10
805.976697
 20
1465.957391
 30
0.0
 11
798.9766969999999
 21
1472.957391
 31
0.0
  0
LINE
  5
4518
330
4738
100
AcDbEntity
  8
0
 62
     0
100
AcDbLine
 10
825.0685799999999
 20
1465.957391
 30
0.0
 11
818.06858
 21
1472.957391
 31
0.0
  0
LINE
  5
4519
330
4738
100
AcDbEntity
  8
0
 62
     0
100
AcDbLine
 10
843.825541
 20
1466.292314
 30
0.0
 11
837.160463
 21
1472.957391
 31
0.0
  0
ENDBLK
  5
451A
330
4738
100
AcDbEntity
  8
0
100
AcDbBlockEnd
  0
BLOCK
  5
4522
330
4739
100
AcDbEntity
  8
0
100
AcDbBlockBegin
  2
*X8
 70
     1
 10
0.0
 20
0.0
 30
0.0
  3
*X8
  1
GEVFRAME
  0
LINE
  5
4524
330
4739
100
AcDbEntity
  8
0
 62
     0
100
AcDbLine
 10
882.3442299999999
 20
1465.957391
 30
0.0
 11
875.3442300000001
 21
1472.957391
 31
0.0
  0
LINE
  5
4525
330
4739
100
AcDbEntity
  8
0
 62
     0
100
AcDbLine
 10
901.4361130000001
 20
1465.957391
 30
0.0
 11
894.436113
 21
1472.957391
 31
0.0
  0
LINE
  5
4526
330
4739
100
AcDbEntity
  8
0
 62
     0
100
AcDbLine
 10
920.5279960000002
 20
1465.957391
 30
0.0
 11
913.5279960000001
 21
1472.957391
 31
0.0
  0
ENDBLK
  5
4527
330
4739
100
AcDbEntity
  8
0
100
AcDbBlockEnd
  0
BLOCK
  5
4531
330
473A
100
AcDbEntity
  8
0
100
AcDbBlockBegin
  2
*X9
 70
     1
 10
0.0
 20
0.0
 30
0.0
  3
*X9
  1
GEVFRAME
  0
LINE
  5
4533
330
473A
100
AcDbEntity
  8
0
 62
     0
100
AcDbLine
 10
626.825541
 20
1444.997328
 30
0.0
 11
623.825541
 21
1447.997328
 31
0.0
  0
LINE
  5
4534
330
473A
100
AcDbEntity
  8
0
 62
     0
100
AcDbLine
 10
626.825541
 20
1437.926261
 30
0.0
 11
623.825541
 21
1440.926261
 31
0.0
  0
LINE
  5
4535
330
473A
100
AcDbEntity
  8
0
 62
     0
100
AcDbLine
 10
637.809758
 20
1419.870975
 30
0.0
 11
633.723342
 21
1423.957391
 31
0.0
  0
LINE
  5
4536
330
473A
100
AcDbEntity
  8
0
 62
     0
100
AcDbLine
 10
626.825541
 20
1430.855193
 30
0.0
 11
623.825541
 21
1433.855193
 31
0.0
  0
LINE
  5
4537
330
473A
100
AcDbEntity
  8
0
 62
     0
100
AcDbLine
 10
631.652275
 20
1418.957391
 30
0.0
 11
623.825541
 21
1426.784125
 31
0.0
  0
LINE
  5
4538
330
473A
100
AcDbEntity
  8
0
 62
     0
100
AcDbLine
 10
624.581207
 20
1418.957391
 30
0.0
 11
623.825541
 21
1419.713057
 31
0.0
  0
LINE
  5
4539
330
473A
100
AcDbEntity
  8
0
 62
     0
100
AcDbLine
 10
626.825541
 20
1452.068396
 30
0.0
 11
623.825541
 21
1455.068396
 31
0.0
  0
LINE
  5
453A
330
473A
100
AcDbEntity
  8
0
 62
     0
100
AcDbLine
 10
626.825541
 20
1459.139464
 30
0.0
 11
623.825541
 21
1462.139464
 31
0.0
  0
LINE
  5
453B
330
473A
100
AcDbEntity
  8
0
 62
     0
100
AcDbLine
 10
626.825541
 20
1466.210532
 30
0.0
 11
623.825541
 21
1469.210532
 31
0.0
  0
LINE
  5
453C
330
473A
100
AcDbEntity
  8
0
 62
     0
100
AcDbLine
 10
626.825541
 20
1473.2816
 30
0.0
 11
626.149749
 21
1473.957391
 31
0.0
  0
ENDBLK
  5
453D
330
473A
100
AcDbEntity
  8
0
100
AcDbBlockEnd
  0
BLOCK
  5
454B
330
473B
100
AcDbEntity
  8
0
100
AcDbBlockBegin
  2
*X10
 70
     1
 10
0.0
 20
0.0
 30
0.0
  3
*X10
  1
GEVFRAME
  0
LINE
  5
454D
330
473B
100
AcDbEntity
  8
0
 62
     0
100
AcDbLine
 10
783.825541
 20
1429.418685
 30
0.0
 11
781.825541
 21
1431.418685
 31
0.0
  0
LINE
  5
454E
330
473B
100
AcDbEntity
  8
0
 62
     0
100
AcDbLine
 10
771.825541
 20
1441.418685
 30
0.0
 11
768.825541
 21
1444.418685
 31
0.0
  0
LINE
  5
454F
330
473B
100
AcDbEntity
  8
0
 62
     0
100
AcDbLine
 10
783.825541
 20
1422.347617
 30
0.0
 11
781.825541
 21
1424.347617
 31
0.0
  0
LINE
  5
4550
330
473B
100
AcDbEntity
  8
0
 62
     0
100
AcDbLine
 10
771.825541
 20
1434.347617
 30
0.0
 11
768.825541
 21
1437.347617
 31
0.0
  0
LINE
  5
4551
330
473B
100
AcDbEntity
  8
0
 62
     0
100
AcDbLine
 10
771.825541
 20
1427.276549
 30
0.0
 11
768.825541
 21
1430.276549
 31
0.0
  0
LINE
  5
4552
330
473B
100
AcDbEntity
  8
0
 62
     0
100
AcDbLine
 10
771.825541
 20
1420.205481
 30
0.0
 11
768.073631
 21
1423.957391
 31
0.0
  0
LINE
  5
4553
330
473B
100
AcDbEntity
  8
0
 62
     0
100
AcDbLine
 10
766.0025629999999
 20
1418.957391
 30
0.0
 11
761.0025629999999
 21
1423.957391
 31
0.0
  0
LINE
  5
4554
330
473B
100
AcDbEntity
  8
0
 62
     0
100
AcDbLine
 10
758.931495
 20
1418.957391
 30
0.0
 11
757.8413229999999
 21
1420.047563
 31
0.0
  0
LINE
  5
4555
330
473B
100
AcDbEntity
  8
0
 62
     0
100
AcDbLine
 10
783.825541
 20
1436.489752
 30
0.0
 11
781.825541
 21
1438.489752
 31
0.0
  0
LINE
  5
4556
330
473B
100
AcDbEntity
  8
0
 62
     0
100
AcDbLine
 10
771.825541
 20
1448.489752
 30
0.0
 11
768.825541
 21
1451.489752
 31
0.0
  0
LINE
  5
4557
330
473B
100
AcDbEntity
  8
0
 62
     0
100
AcDbLine
 10
783.825541
 20
1443.56082
 30
0.0
 11
781.825541
 21
1445.56082
 31
0.0
  0
LINE
  5
4558
330
473B
100
AcDbEntity
  8
0
 62
     0
100
AcDbLine
 10
771.825541
 20
1455.56082
 30
0.0
 11
768.825541
 21
1458.56082
 31
0.0
  0
LINE
  5
4559
330
473B
100
AcDbEntity
  8
0
 62
     0
100
AcDbLine
 10
783.825541
 20
1450.631888
 30
0.0
 11
781.825541
 21
1452.631888
 31
0.0
  0
LINE
  5
455A
330
473B
100
AcDbEntity
  8
0
 62
     0
100
AcDbLine
 10
771.825541
 20
1462.631888
 30
0.0
 11
768.825541
 21
1465.631888
 31
0.0
  0
LINE
  5
455B
330
473B
100
AcDbEntity
  8
0
 62
     0
100
AcDbLine
 10
783.825541
 20
1457.702956
 30
0.0
 11
781.825541
 21
1459.702956
 31
0.0
  0
LINE
  5
455C
330
473B
100
AcDbEntity
  8
0
 62
     0
100
AcDbLine
 10
771.825541
 20
1469.702956
 30
0.0
 11
768.825541
 21
1472.702956
 31
0.0
  0
LINE
  5
455D
330
473B
100
AcDbEntity
  8
0
 62
     0
100
AcDbLine
 10
783.825541
 20
1464.774024
 30
0.0
 11
781.825541
 21
1466.774024
 31
0.0
  0
LINE
  5
455E
330
473B
100
AcDbEntity
  8
0
 62
     0
100
AcDbLine
 10
776.6421730000001
 20
1471.957391
 30
0.0
 11
774.642173
 21
1473.957391
 31
0.0
  0
LINE
  5
455F
330
473B
100
AcDbEntity
  8
0
 62
     0
100
AcDbLine
 10
783.825541
 20
1471.845091
 30
0.0
 11
781.713241
 21
1473.957391
 31
0.0
  0
ENDBLK
  5
4560
330
473B
100
AcDbEntity
  8
0
100
AcDbBlockEnd
  0
BLOCK
  5
4572
330
473C
100
AcDbEntity
  8
0
100
AcDbBlockBegin
  2
*D11
 70
     1
 10
0.0
 20
0.0
 30
0.0
  3
*D11
  1
GEVFRAME
  0
LINE
  5
4573
330
473C
100
AcDbEntity
  8
0
  6
ByBlock
100
AcDbLine
 10
917.825541
 20
1243.957391
 30
0.0
 11
970.7730619999999
 21
1243.957391
 31
0.0
  0
LINE
  5
4574
330
473C
100
AcDbEntity
  8
0
  6
ByBlock
100
AcDbLine
 10
917.825541
 20
1303.957391
 30
0.0
 11
970.7730619999999
 21
1303.957391
 31
0.0
  0
LINE
  5
4575
330
473C
100
AcDbEntity
  8
0
  6
ByBlock
100
AcDbLine
 10
965.7730619999998
 20
1256.457391
 30
0.0
 11
965.7730619999998
 21
1291.457391
 31
0.0
  0
SOLID
  5
4576
330
473C
100
AcDbEntity
  8
0
  6
ByBlock
100
AcDbTrace
 10
963.6897279999999
 20
1256.457391
 30
0.0
 11
967.8563949999999
 21
1256.457391
 31
0.0
 12
965.7730619999998
 22
1243.957391
 32
0.0
 13
965.7730619999998
 23
1243.957391
 33
0.0
  0
SOLID
  5
4577
330
473C
100
AcDbEntity
  8
0
  6
ByBlock
100
AcDbTrace
 10
963.6897279999999
 20
1291.457391
 30
0.0
 11
967.8563949999999
 21
1291.457391
 31
0.0
 12
965.7730619999998
 22
1303.957391
 32
0.0
 13
965.7730619999998
 23
1303.957391
 33
0.0
  0
TEXT
  5
4578
330
473C
100
AcDbEntity
  8
0
  6
ByBlock
 62
     2
100
AcDbText
 10
962.7730619999999
 20
1262.224123
 30
0.0
 40
17.5
  1
60
 50
90.0
100
AcDbText
  0
POINT
  5
4579
330
473C
100
AcDbEntity
  8
DEFPOINTS
  6
ByBlock
 62
     0
100
AcDbPoint
 10
912.8255410000001
 20
1243.957391
 30
0.0
  0
POINT
  5
457A
330
473C
100
AcDbEntity
  8
DEFPOINTS
  6
ByBlock
 62
     0
100
AcDbPoint
 10
912.8255410000001
 20
1303.957391
 30
0.0
  0
POINT
  5
457B
330
473C
100
AcDbEntity
  8
DEFPOINTS
  6
ByBlock
 62
     0
100
AcDbPoint
 10
965.7730619999998
 20
1303.957391
 30
0.0
  0
ENDBLK
  5
457C
330
473C
100
AcDbEntity
  8
0
100
AcDbBlockEnd
  0
BLOCK
  5
4599
330
473D
100
AcDbEntity
  8
0
100
AcDbBlockBegin
  2
*D12
 70
     1
 10
0.0
 20
0.0
 30
0.0
  3
*D12
  1
GEVFRAME
  0
LINE
  5
459A
330
473D
100
AcDbEntity
  8
0
  6
ByBlock
100
AcDbLine
 10
789.825541
 20
1243.957391
 30
0.0
 11
573.21686
 21
1243.957391
 31
0.0
  0
LINE
  5
459B
330
473D
100
AcDbEntity
  8
0
  6
ByBlock
100
AcDbLine
 10
789.825541
 20
1478.957391
 30
0.0
 11
573.21686
 21
1478.957391
 31
0.0
  0
LINE
  5
459C
330
473D
100
AcDbEntity
  8
0
  6
ByBlock
100
AcDbLine
 10
578.21686
 20
1256.457391
 30
0.0
 11
578.21686
 21
1466.457391
 31
0.0
  0
SOLID
  5
459D
330
473D
100
AcDbEntity
  8
0
  6
ByBlock
100
AcDbTrace
 10
576.133527
 20
1256.457391
 30
0.0
 11
580.3001929999999
 21
1256.457391
 31
0.0
 12
578.21686
 22
1243.957391
 32
0.0
 13
578.21686
 23
1243.957391
 33
0.0
  0
SOLID
  5
459E
330
473D
100
AcDbEntity
  8
0
  6
ByBlock
100
AcDbTrace
 10
576.133527
 20
1466.457391
 30
0.0
 11
580.3001929999999
 21
1466.457391
 31
0.0
 12
578.21686
 22
1478.957391
 32
0.0
 13
578.21686
 23
1478.957391
 33
0.0
  0
TEXT
  5
459F
330
473D
100
AcDbEntity
  8
0
  6
ByBlock
 62
     2
100
AcDbText
 10
575.2185820000001
 20
1342.942149
 30
0.0
 40
17.5
  1
235
 50
90.0
100
AcDbText
  0
POINT
  5
45A0
330
473D
100
AcDbEntity
  8
DEFPOINTS
  6
ByBlock
 62
     0
100
AcDbPoint
 10
794.825541
 20
1243.957391
 30
0.0
  0
POINT
  5
45A1
330
473D
100
AcDbEntity
  8
DEFPOINTS
  6
ByBlock
 62
     0
100
AcDbPoint
 10
794.825541
 20
1478.957391
 30
0.0
  0
POINT
  5
45A2
330
473D
100
AcDbEntity
  8
DEFPOINTS
  6
ByBlock
 62
     0
100
AcDbPoint
 10
578.21686
 20
1478.957391
 30
0.0
  0
ENDBLK
  5
45A3
330
473D
100
AcDbEntity
  8
0
100
AcDbBlockEnd
  0
BLOCK
  5
46AF
330
473E
100
AcDbEntity
  8
0
100
AcDbBlockBegin
  2
*D13
 70
     1
 10
0.0
 20
0.0
 30
0.0
  3
*D13
  1
GEVFRAME
  0
LINE
  5
46B0
330
473E
100
AcDbEntity
  8
0
  6
ByBlock
100
AcDbLine
 10
688.325541
 20
1398.973931
 30
0.0
 11
688.325541
 21
1380.653951
 31
0.0
  0
LINE
  5
46B1
330
473E
100
AcDbEntity
  8
0
  6
ByBlock
100
AcDbLine
 10
697.825541
 20
1398.973931
 30
0.0
 11
697.825541
 21
1380.653951
 31
0.0
  0
LINE
  5
46B2
330
473E
100
AcDbEntity
  8
0
  6
ByBlock
100
AcDbLine
 10
675.825541
 20
1385.653951
 30
0.0
 11
663.325541
 21
1385.653951
 31
0.0
  0
LINE
  5
46B3
330
473E
100
AcDbEntity
  8
0
  6
ByBlock
100
AcDbLine
 10
710.325541
 20
1385.653951
 30
0.0
 11
754.111565
 21
1385.653951
 31
0.0
  0
LINE
  5
46B4
330
473E
100
AcDbEntity
  8
0
  6
ByBlock
100
AcDbLine
 10
688.325541
 20
1385.653951
 30
0.0
 11
697.825541
 21
1385.653951
 31
0.0
  0
SOLID
  5
46B5
330
473E
100
AcDbEntity
  8
0
  6
ByBlock
100
AcDbTrace
 10
675.825541
 20
1387.737284
 30
0.0
 11
675.825541
 21
1383.570618
 31
0.0
 12
688.325541
 22
1385.653951
 32
0.0
 13
688.325541
 23
1385.653951
 33
0.0
  0
SOLID
  5
46B6
330
473E
100
AcDbEntity
  8
0
  6
ByBlock
100
AcDbTrace
 10
710.325541
 20
1387.737284
 30
0.0
 11
710.325541
 21
1383.570618
 31
0.0
 12
697.825541
 22
1385.653951
 32
0.0
 13
697.825541
 23
1385.653951
 33
0.0
  0
TEXT
  5
46B7
330
473E
100
AcDbEntity
  8
0
  6
ByBlock
 62
     2
100
AcDbText
 10
723.5324019999999
 20
1388.653951
 30
0.0
 40
17.5
  1
9.5
100
AcDbText
  0
POINT
  5
46B8
330
473E
100
AcDbEntity
  8
DEFPOINTS
  6
ByBlock
 62
     0
100
AcDbPoint
 10
688.325541
 20
1403.973931
 30
0.0
  0
POINT
  5
46B9
330
473E
100
AcDbEntity
  8
DEFPOINTS
  6
ByBlock
 62
     0
100
AcDbPoint
 10
697.825541
 20
1403.973931
 30
0.0
  0
POINT
  5
46BA
330
473E
100
AcDbEntity
  8
DEFPOINTS
  6
ByBlock
 62
     0
100
AcDbPoint
 10
697.825541
 20
1385.653951
 30
0.0
  0
ENDBLK
  5
46BB
330
473E
100
AcDbEntity
  8
0
100
AcDbBlockEnd
  0
BLOCK
  5
46FE
330
473F
100
AcDbEntity
  8
0
100
AcDbBlockBegin
  2
*D14
 70
     1
 10
0.0
 20
0.0
 30
0.0
  3
*D14
  1
GEVFRAME
  0
LINE
  5
46FF
330
473F
100
AcDbEntity
  8
0
  6
ByBlock
100
AcDbLine
 10
614.825541
 20
1483.957391
 30
0.0
 11
614.825541
 21
1608.488869
 31
0.0
  0
LINE
  5
4700
330
473F
100
AcDbEntity
  8
0
  6
ByBlock
100
AcDbLine
 10
932.825541
 20
1483.957391
 30
0.0
 11
932.825541
 21
1608.488869
 31
0.0
  0
LINE
  5
4701
330
473F
100
AcDbEntity
  8
0
  6
ByBlock
100
AcDbLine
 10
627.325541
 20
1603.488869
 30
0.0
 11
920.325541
 21
1603.488869
 31
0.0
  0
SOLID
  5
4702
330
473F
100
AcDbEntity
  8
0
  6
ByBlock
100
AcDbTrace
 10
627.325541
 20
1605.572203
 30
0.0
 11
627.325541
 21
1601.405536
 31
0.0
 12
614.825541
 22
1603.488869
 32
0.0
 13
614.825541
 23
1603.488869
 33
0.0
  0
SOLID
  5
4703
330
473F
100
AcDbEntity
  8
0
  6
ByBlock
100
AcDbTrace
 10
920.325541
 20
1605.572203
 30
0.0
 11
920.325541
 21
1601.405536
 31
0.0
 12
932.825541
 22
1603.488869
 32
0.0
 13
932.825541
 23
1603.488869
 33
0.0
  0
TEXT
  5
4704
330
473F
100
AcDbEntity
  8
0
  6
ByBlock
 62
     2
100
AcDbText
 10
757.200541
 20
1606.488869
 30
0.0
 40
17.5
  1
318
100
AcDbText
  0
POINT
  5
4705
330
473F
100
AcDbEntity
  8
DEFPOINTS
  6
ByBlock
 62
     0
100
AcDbPoint
 10
614.825541
 20
1478.957391
 30
0.0
  0
POINT
  5
4706
330
473F
100
AcDbEntity
  8
DEFPOINTS
  6
ByBlock
 62
     0
100
AcDbPoint
 10
932.825541
 20
1478.957391
 30
0.0
  0
POINT
  5
4707
330
473F
100
AcDbEntity
  8
DEFPOINTS
  6
ByBlock
 62
     0
100
AcDbPoint
 10
932.825541
 20
1603.488869
 30
0.0
  0
ENDBLK
  5
4708
330
473F
100
AcDbEntity
  8
0
100
AcDbBlockEnd
  0
BLOCK
  5
46F3
330
4740
100
AcDbEntity
  8
0
100
AcDbBlockBegin
  2
*D15
 70
     1
 10
0.0
 20
0.0
 30
0.0
  3
*D15
  1
GEVFRAME
  0
LINE
  5
46F4
330
4740
100
AcDbEntity
  8
0
  6
ByBlock
100
AcDbLine
 10
614.825541
 20
1483.957391
 30
0.0
 11
614.825541
 21
1578.388771
 31
0.0
  0
LINE
  5
46F5
330
4740
100
AcDbEntity
  8
0
  6
ByBlock
100
AcDbLine
 10
785.825541
 20
1483.957391
 30
0.0
 11
785.825541
 21
1578.388771
 31
0.0
  0
LINE
  5
46F6
330
4740
100
AcDbEntity
  8
0
  6
ByBlock
100
AcDbLine
 10
627.325541
 20
1573.388771
 30
0.0
 11
773.325541
 21
1573.388771
 31
0.0
  0
SOLID
  5
46F7
330
4740
100
AcDbEntity
  8
0
  6
ByBlock
100
AcDbTrace
 10
627.325541
 20
1575.472104
 30
0.0
 11
627.325541
 21
1571.305437
 31
0.0
 12
614.825541
 22
1573.388771
 32
0.0
 13
614.825541
 23
1573.388771
 33
0.0
  0
SOLID
  5
46F8
330
4740
100
AcDbEntity
  8
0
  6
ByBlock
100
AcDbTrace
 10
773.325541
 20
1575.472104
 30
0.0
 11
773.325541
 21
1571.305437
 31
0.0
 12
785.825541
 22
1573.388771
 32
0.0
 13
785.825541
 23
1573.388771
 33
0.0
  0
TEXT
  5
46F9
330
4740
100
AcDbEntity
  8
0
  6
ByBlock
 62
     2
100
AcDbText
 10
675.300024
 20
1576.388771
 30
0.0
 40
17.5
  1
%%c152
100
AcDbText
  0
POINT
  5
46FA
330
4740
100
AcDbEntity
  8
DEFPOINTS
  6
ByBlock
 62
     0
100
AcDbPoint
 10
614.825541
 20
1478.957391
 30
0.0
  0
POINT
  5
46FB
330
4740
100
AcDbEntity
  8
DEFPOINTS
  6
ByBlock
 62
     0
100
AcDbPoint
 10
785.825541
 20
1478.957391
 30
0.0
  0
POINT
  5
46FC
330
4740
100
AcDbEntity
  8
DEFPOINTS
  6
ByBlock
 62
     0
100
AcDbPoint
 10
785.825541
 20
1573.388771
 30
0.0
  0
ENDBLK
  5
46FD
330
4740
100
AcDbEntity
  8
0
100
AcDbBlockEnd
  0
BLOCK
  5
46E8
330
4741
100
AcDbEntity
  8
0
100
AcDbBlockBegin
  2
*D16
 70
     1
 10
0.0
 20
0.0
 30
0.0
  3
*D16
  1
GEVFRAME
  0
LINE
  5
46E9
330
4741
100
AcDbEntity
  8
0
  6
ByBlock
100
AcDbLine
 10
697.825541
 20
1488.997044
 30
0.0
 11
697.825541
 21
1545.644792
 31
0.0
  0
LINE
  5
46EA
330
4741
100
AcDbEntity
  8
0
  6
ByBlock
100
AcDbLine
 10
853.8255410000001
 20
1488.997044
 30
0.0
 11
853.8255410000001
 21
1545.644792
 31
0.0
  0
LINE
  5
46EB
330
4741
100
AcDbEntity
  8
0
  6
ByBlock
100
AcDbLine
 10
710.325541
 20
1540.644792
 30
0.0
 11
841.3255410000001
 21
1540.644792
 31
0.0
  0
SOLID
  5
46EC
330
4741
100
AcDbEntity
  8
0
  6
ByBlock
100
AcDbTrace
 10
710.325541
 20
1542.728125
 30
0.0
 11
710.325541
 21
1538.561459
 31
0.0
 12
697.825541
 22
1540.644792
 32
0.0
 13
697.825541
 23
1540.644792
 33
0.0
  0
SOLID
  5
46ED
330
4741
100
AcDbEntity
  8
0
  6
ByBlock
100
AcDbTrace
 10
841.3255410000001
 20
1542.728125
 30
0.0
 11
841.3255410000001
 21
1538.561459
 31
0.0
 12
853.8255410000001
 22
1540.644792
 32
0.0
 13
853.8255410000001
 23
1540.644792
 33
0.0
  0
TEXT
  5
46EE
330
4741
100
AcDbEntity
  8
0
  6
ByBlock
 62
     2
100
AcDbText
 10
790.5872289999999
 20
1543.644792
 30
0.0
 40
17.5
  1
156
100
AcDbText
  0
POINT
  5
46EF
330
4741
100
AcDbEntity
  8
DEFPOINTS
  6
ByBlock
 62
     0
100
AcDbPoint
 10
697.825541
 20
1483.997044
 30
0.0
  0
POINT
  5
46F0
330
4741
100
AcDbEntity
  8
DEFPOINTS
  6
ByBlock
 62
     0
100
AcDbPoint
 10
853.8255410000001
 20
1483.997044
 30
0.0
  0
POINT
  5
46F1
330
4741
100
AcDbEntity
  8
DEFPOINTS
  6
ByBlock
 62
     0
100
AcDbPoint
 10
853.8255410000001
 20
1540.644792
 30
0.0
  0
ENDBLK
  5
46F2
330
4741
100
AcDbEntity
  8
0
100
AcDbBlockEnd
  0
BLOCK
  5
46DD
330
4742
100
AcDbEntity
  8
0
100
AcDbBlockBegin
  2
*D17
 70
     1
 10
0.0
 20
0.0
 30
0.0
  3
*D17
  1
GEVFRAME
  0
LINE
  5
46DE
330
4742
100
AcDbEntity
  8
0
  6
ByBlock
100
AcDbLine
 10
626.825541
 20
1478.2816
 30
0.0
 11
626.825541
 21
1513.025448
 31
0.0
  0
LINE
  5
46DF
330
4742
100
AcDbEntity
  8
0
  6
ByBlock
100
AcDbLine
 10
768.825541
 20
1478.2816
 30
0.0
 11
768.825541
 21
1513.025448
 31
0.0
  0
LINE
  5
46E0
330
4742
100
AcDbEntity
  8
0
  6
ByBlock
100
AcDbLine
 10
639.325541
 20
1508.025448
 30
0.0
 11
756.325541
 21
1508.025448
 31
0.0
  0
SOLID
  5
46E1
330
4742
100
AcDbEntity
  8
0
  6
ByBlock
100
AcDbTrace
 10
639.325541
 20
1510.108782
 30
0.0
 11
639.325541
 21
1505.942115
 31
0.0
 12
626.825541
 22
1508.025448
 32
0.0
 13
626.825541
 23
1508.025448
 33
0.0
  0
SOLID
  5
46E2
330
4742
100
AcDbEntity
  8
0
  6
ByBlock
100
AcDbTrace
 10
756.325541
 20
1510.108782
 30
0.0
 11
756.325541
 21
1505.942115
 31
0.0
 12
768.825541
 22
1508.025448
 32
0.0
 13
768.825541
 23
1508.025448
 33
0.0
  0
TEXT
  5
46E3
330
4742
100
AcDbEntity
  8
0
  6
ByBlock
 62
     2
100
AcDbText
 10
705.200541
 20
1511.023726
 30
0.0
 40
17.5
  1
%%c124
100
AcDbText
  0
POINT
  5
46E4
330
4742
100
AcDbEntity
  8
DEFPOINTS
  6
ByBlock
 62
     0
100
AcDbPoint
 10
626.825541
 20
1473.2816
 30
0.0
  0
POINT
  5
46E5
330
4742
100
AcDbEntity
  8
DEFPOINTS
  6
ByBlock
 62
     0
100
AcDbPoint
 10
768.825541
 20
1473.2816
 30
0.0
  0
POINT
  5
46E6
330
4742
100
AcDbEntity
  8
DEFPOINTS
  6
ByBlock
 62
     0
100
AcDbPoint
 10
768.825541
 20
1508.025448
 30
0.0
  0
ENDBLK
  5
46E7
330
4742
100
AcDbEntity
  8
0
100
AcDbBlockEnd
  0
BLOCK
  5
4844
330
4842
100
AcDbEntity
  8
0
100
AcDbBlockBegin
  2
GENAXEH
 70
     0
 10
0.0
 20
0.0
 30
0.0
  3
GENAXEH
  1

  0
LINE
  5
4843
330
4842
100
AcDbEntity
  8
0
100
AcDbLine
 10
-1.0
 20
0.0
 30
0.0
 11
1.0
 21
0.0
 31
0.0
  0
ENDBLK
  5
4845
330
4842
100
AcDbEntity
  8
0
100
AcDbBlockEnd
  0
ENDSEC
  0
SECTION
  2
ENTITIES
  0
LINE
  5
4266
330
4729
100
AcDbEntity
  8
0
100
AcDbLine
 10
614.825541
 20
1478.957391
 30
0.0
 11
932.825541
 21
1478.957391
 31
0.0
  0
LINE
  5
4268
330
4729
100
AcDbEntity
  8
0
100
AcDbLine
 10
912.8255410000001
 20
1243.957391
 30
0.0
 11
794.825541
 21
1243.957391
 31
0.0
  0
LINE
  5
4269
330
4729
100
AcDbEntity
  8
0
100
AcDbLine
 10
614.825541
 20
1468.957391
 30
0.0
 11
614.825541
 21
1478.957391
 31
0.0
1001
GENIUS_VERSION2
1070
     2
  0
LINE
  5
4271
330
4729
100
AcDbEntity
  8
0
100
AcDbLine
 10
932.825541
 20
1138.439468
 30
0.0
 11
932.825541
 21
992.4394679999998
 31
0.0
  0
LINE
  5
4272
330
4729
100
AcDbEntity
  8
0
100
AcDbLine
 10
926.825541
 20
1144.439468
 30
0.0
 11
780.8255410000001
 21
1144.439468
 31
0.0
  0
LINE
  5
4273
330
4729
100
AcDbEntity
  8
0
100
AcDbLine
 10
774.825541
 20
1138.439468
 30
0.0
 11
774.825541
 21
1100.026316
 31
0.0
  0
LINE
  5
4274
330
4729
100
AcDbEntity
  8
0
100
AcDbLine
 10
780.8255410000001
 20
986.439468
 30
0.0
 11
926.825541
 21
986.439468
 31
0.0
  0
LINE
  5
427B
330
4729
100
AcDbEntity
  8
0
100
AcDbLine
 10
926.825541
 20
1139.439468
 30
0.0
 11
780.8255410000001
 21
1139.439468
 31
0.0
  0
LINE
  5
427D
330
4729
100
AcDbEntity
  8
0
100
AcDbLine
 10
927.8255409999999
 20
1138.439468
 30
0.0
 11
927.8255409999999
 21
992.4394679999998
 31
0.0
  0
LINE
  5
427F
330
4729
100
AcDbEntity
  8
0
100
AcDbLine
 10
780.8255410000001
 20
991.4394679999999
 30
0.0
 11
926.825541
 21
991.4394679999999
 31
0.0
  0
LINE
  5
4281
330
4729
100
AcDbEntity
  8
0
100
AcDbLine
 10
779.825541
 20
1138.439468
 30
0.0
 11
779.825541
 21
992.4394679999998
 31
0.0
  0
ARC
  5
4283
330
4729
100
AcDbEntity
  8
0
100
AcDbCircle
 10
697.825541
 20
1065.439468
 30
0.0
 40
82.5
100
AcDbArc
 50
24.469812
 51
335.530188
1001
GENIUS_VERSION2
1070
     2
  0
ARC
  5
4284
330
4729
100
AcDbEntity
  8
0
100
AcDbCircle
 10
926.825541
 20
1138.439468
 30
0.0
 40
6.0
100
AcDbArc
 50
0.0
 51
90.0
1001
GENIUS_GENODEF_13
1002
{
1000
HIER
1070
     0
1002
}
1002
{
1000
MANEDIT
1070
     0
1002
}
1002
{
1000
NOSEL
1070
     0
1002
}
1002
{
1000
BEHIND
1070
     0
1002
}
1002
{
1000
REACTOR
1002
}
1001
GENIUS_GENOBJ-N-FIL_13
1002
{
1000
OWNER
1000
GEN
1002
}
  0
ARC
  5
4285
330
4729
100
AcDbEntity
  8
0
100
AcDbCircle
 10
926.825541
 20
992.4394679999998
 30
0.0
 40
6.0
100
AcDbArc
 50
270.0
 51
0.0
1001
GENIUS_GENODEF_13
1002
{
1000
HIER
1070
     0
1002
}
1002
{
1000
MANEDIT
1070
     0
1002
}
1002
{
1000
NOSEL
1070
     0
1002
}
1002
{
1000
BEHIND
1070
     0
1002
}
1002
{
1000
REACTOR
1002
}
1001
GENIUS_GENOBJ-N-FIL_13
1002
{
1000
OWNER
1000
GEN
1002
}
  0
ARC
  5
4286
330
4729
100
AcDbEntity
  8
0
100
AcDbCircle
 10
780.8255410000001
 20
992.4394679999998
 30
0.0
 40
6.0
100
AcDbArc
 50
180.0
 51
270.0
1001
GENIUS_GENODEF_13
1002
{
1000
HIER
1070
     0
1002
}
1002
{
1000
MANEDIT
1070
     0
1002
}
1002
{
1000
NOSEL
1070
     0
1002
}
1002
{
1000
BEHIND
1070
     0
1002
}
1002
{
1000
REACTOR
1002
}
1001
GENIUS_GENOBJ-N-FIL_13
1002
{
1000
OWNER
1000
GEN
1002
}
  0
ARC
  5
4287
330
4729
100
AcDbEntity
  8
0
100
AcDbCircle
 10
780.8255410000001
 20
1138.439468
 30
0.0
 40
6.0
100
AcDbArc
 50
90.0
 51
180.0
1001
GENIUS_GENODEF_13
1002
{
1000
HIER
1070
     0
1002
}
1002
{
1000
MANEDIT
1070
     0
1002
}
1002
{
1000
NOSEL
1070
     0
1002
}
1002
{
1000
BEHIND
1070
     0
1002
}
1002
{
1000
REACTOR
1002
}
1001
GENIUS_GENOBJ-N-FIL_13
1002
{
1000
OWNER
1000
GEN
1002
}
  0
ARC
  5
4288
330
4729
100
AcDbEntity
  8
0
100
AcDbCircle
 10
926.825541
 20
1138.439468
 30
0.0
 40
1.0
100
AcDbArc
 50
0.0
 51
90.0
1001
GENIUS_GENODEF_13
1002
{
1000
HIER
1070
     0
1002
}
1002
{
1000
MANEDIT
1070
     0
1002
}
1002
{
1000
NOSEL
1070
     0
1002
}
1002
{
1000
BEHIND
1070
     0
1002
}
1002
{
1000
REACTOR
1002
}
1001
GENIUS_GENOBJ-N-FIL_13
1002
{
1000
OWNER
1000
GEN
1002
}
  0
ARC
  5
4289
330
4729
100
AcDbEntity
  8
0
100
AcDbCircle
 10
926.825541
 20
992.4394679999998
 30
0.0
 40
1.0
100
AcDbArc
 50
270.0
 51
0.0
1001
GENIUS_GENODEF_13
1002
{
1000
HIER
1070
     0
1002
}
1002
{
1000
MANEDIT
1070
     0
1002
}
1002
{
1000
NOSEL
1070
     0
1002
}
1002
{
1000
BEHIND
1070
     0
1002
}
1002
{
1000
REACTOR
1002
}
1001
GENIUS_GENOBJ-N-FIL_13
1002
{
1000
OWNER
1000
GEN
1002
}
  0
ARC
  5
428A
330
4729
100
AcDbEntity
  8
0
100
AcDbCircle
 10
780.8255410000001
 20
992.4394679999998
 30
0.0
 40
1.0
100
AcDbArc
 50
180.0
 51
270.0
1001
GENIUS_GENODEF_13
1002
{
1000
HIER
1070
     0
1002
}
1002
{
1000
MANEDIT
1070
     0
1002
}
1002
{
1000
NOSEL
1070
     0
1002
}
1002
{
1000
BEHIND
1070
     0
1002
}
1002
{
1000
REACTOR
1002
}
1001
GENIUS_GENOBJ-N-FIL_13
1002
{
1000
OWNER
1000
GEN
1002
}
  0
ARC
  5
428B
330
4729
100
AcDbEntity
  8
0
100
AcDbCircle
 10
780.8255410000001
 20
1138.439468
 30
0.0
 40
1.0
100
AcDbArc
 50
90.0
 51
180.0
1001
GENIUS_GENODEF_13
1002
{
1000
HIER
1070
     0
1002
}
1002
{
1000
MANEDIT
1070
     0
1002
}
1002
{
1000
NOSEL
1070
     0
1002
}
1002
{
1000
BEHIND
1070
     0
1002
}
1002
{
1000
REACTOR
1002
}
1001
GENIUS_GENOBJ-N-FIL_13
1002
{
1000
OWNER
1000
GEN
1002
}
  0
LINE
  5
428C
330
4729
100
AcDbEntity
  8
0
100
AcDbLine
 10
774.825541
 20
1030.852621
 30
0.0
 11
774.825541
 21
992.4394679999998
 31
0.0
1001
GENIUS_VERSION2
1070
     2
  0
ARC
  5
428D
330
4729
100
AcDbEntity
  8
0
100
AcDbCircle
 10
773.825541
 20
1100.026316
 30
0.0
 40
1.0
100
AcDbArc
 50
204.469812
 51
0.0
1001
GENIUS_GENODEF_13
1002
{
1000
HIER
1070
     0
1002
}
1002
{
1000
MANEDIT
1070
     0
1002
}
1002
{
1000
NOSEL
1070
     0
1002
}
1002
{
1000
BEHIND
1070
     0
1002
}
1002
{
1000
REACTOR
1002
}
1001
GENIUS_GENOBJ-N-FIL_13
1002
{
1000
OWNER
1000
GEN
1002
}
1001
GENIUS_VERSION2
1070
     2
  0
ARC
  5
428E
330
4729
100
AcDbEntity
  8
0
100
AcDbCircle
 10
773.825541
 20
1030.852621
 30
0.0
 40
1.0
100
AcDbArc
 50
0.0
 51
155.530188
1001
GENIUS_GENODEF_13
1002
{
1000
HIER
1070
     0
1002
}
1002
{
1000
MANEDIT
1070
     0
1002
}
1002
{
1000
NOSEL
1070
     0
1002
}
1002
{
1000
BEHIND
1070
     0
1002
}
1002
{
1000
REACTOR
1002
}
1001
GENIUS_GENOBJ-N-FIL_13
1002
{
1000
OWNER
1000
GEN
1002
}
1001
GENIUS_VERSION2
1070
     2
  0
CIRCLE
  5
4292
330
4729
100
AcDbEntity
  8
0
100
AcDbCircle
 10
688.325541
 20
1065.439468
 30
0.0
 40
50.0
  0
CIRCLE
  5
4293
330
4729
100
AcDbEntity
  8
0
100
AcDbCircle
 10
688.325541
 20
1065.439468
 30
0.0
 40
60.0
  0
CIRCLE
  5
4299
330
4729
100
AcDbEntity
  8
0
100
AcDbCircle
 10
697.825541
 20
1065.439468
 30
0.0
 40
72.5
  0
CIRCLE
  5
429A
330
4729
100
AcDbEntity
  8
0
100
AcDbCircle
 10
697.825541
 20
1065.439468
 30
0.0
 40
69.5
1001
GENIUS_VERSION2
1070
     2
  0
LINE
  5
42BA
330
4729
100
AcDbEntity
  8
0
100
AcDbLine
 10
809.825541
 20
991.4394679999999
 30
0.0
 11
809.825541
 21
1109.439468
 31
0.0
  0
POLYLINE
  5
42BE
330
4729
100
AcDbEntity
  8
0
100
AcDb2dPolyline
 66
     1
 10
0.0
 20
0.0
 30
0.0
 70
     1
1001
GENIUS_GENODEF_13
1002
{
1000
HIER
1070
     0
1002
}
1002
{
1000
MANEDIT
1070
     0
1002
}
1002
{
1000
NOSEL
1070
     0
1002
}
1002
{
1000
BEHIND
1070
     0
1002
}
1002
{
1000
REACTOR
1002
}
1001
GENIUS_GENOBJ-N-REC_13
1002
{
1000
OWNER
1000
GEN
1002
}
1001
GENIUS_GENREC_13
1070
     4
1070
     3
1070
     4
  0
VERTEX
  5
42BF
330
42BE
100
AcDbEntity
  8
0
100
AcDbVertex
100
AcDb2dVertex
 10
794.825541
 20
1006.439468
 30
0.0
1001
GENIUS_GENODEF_13
1002
{
1000
HIER
1070
     0
1002
}
1002
{
1000
MANEDIT
1070
     0
1002
}
1002
{
1000
NOSEL
1070
     0
1002
}
1002
{
1000
BEHIND
1070
     0
1002
}
1002
{
1000
REACTOR
1002
}
1001
GENIUS_GENOBJ-N-REC_13
1002
{
1000
OWNER
1000
GEN
1002
}
1001
GENIUS_GENREC_13
1070
     4
1070
     3
1070
     4
  0
VERTEX
  5
42C0
330
42BE
100
AcDbEntity
  8
0
100
AcDbVertex
100
AcDb2dVertex
 10
912.8255410000001
 20
1006.439468
 30
0.0
1001
GENIUS_GENODEF_13
1002
{
1000
HIER
1070
     0
1002
}
1002
{
1000
MANEDIT
1070
     0
1002
}
1002
{
1000
NOSEL
1070
     0
1002
}
1002
{
1000
BEHIND
1070
     0
1002
}
1002
{
1000
REACTOR
1002
}
1001
GENIUS_GENOBJ-N-REC_13
1002
{
1000
OWNER
1000
GEN
1002
}
1001
GENIUS_GENREC_13
1070
     4
1070
     3
1070
     4
  0
VERTEX
  5
42C1
330
42BE
100
AcDbEntity
  8
0
100
AcDbVertex
100
AcDb2dVertex
 10
912.8255410000001
 20
1124.439468
 30
0.0
1001
GENIUS_GENODEF_13
1002
{
1000
HIER
1070
     0
1002
}
1002
{
1000
MANEDIT
1070
     0
1002
}
1002
{
1000
NOSEL
1070
     0
1002
}
1002
{
1000
BEHIND
1070
     0
1002
}
1002
{
1000
REACTOR
1002
}
1001
GENIUS_GENOBJ-N-REC_13
1002
{
1000
OWNER
1000
GEN
1002
}
1001
GENIUS_GENREC_13
1070
     4
1070
     3
1070
     4
  0
VERTEX
  5
42C2
330
42BE
100
AcDbEntity
  8
0
100
AcDbVertex
100
AcDb2dVertex
 10
794.825541
 20
1124.439468
 30
0.0
1001
GENIUS_GENODEF_13
1002
{
1000
HIER
1070
     0
1002
}
1002
{
1000
MANEDIT
1070
     0
1002
}
1002
{
1000
NOSEL
1070
     0
1002
}
1002
{
1000
BEHIND
1070
     0
1002
}
1002
{
1000
REACTOR
1002
}
1001
GENIUS_GENOBJ-N-REC_13
1002
{
1000
OWNER
1000
GEN
1002
}
1001
GENIUS_GENREC_13
1070
     4
1070
     3
1070
     4
  0
SEQEND
  5
42C3
330
42BE
100
AcDbEntity
  8
0
  0
LINE
  5
42C5
330
4729
100
AcDbEntity
  8
0
100
AcDbLine
 10
824.825541
 20
991.4394679999999
 30
0.0
 11
824.825541
 21
1109.439468
 31
0.0
  0
LINE
  5
42C7
330
4729
100
AcDbEntity
  8
0
100
AcDbLine
 10
839.825541
 20
991.4394679999999
 30
0.0
 11
839.825541
 21
1109.439468
 31
0.0
  0
LINE
  5
42CB
330
4729
100
AcDbEntity
  8
0
100
AcDbLine
 10
867.825541
 20
991.4394679999999
 30
0.0
 11
867.825541
 21
1109.439468
 31
0.0
  0
LINE
  5
42CC
330
4729
100
AcDbEntity
  8
0
100
AcDbLine
 10
882.825541
 20
991.4394679999999
 30
0.0
 11
882.825541
 21
1109.439468
 31
0.0
  0
LINE
  5
42CD
330
4729
100
AcDbEntity
  8
0
100
AcDbLine
 10
897.825541
 20
991.4394679999999
 30
0.0
 11
897.825541
 21
1109.439468
 31
0.0
  0
LINE
  5
42CF
330
4729
100
AcDbEntity
  8
0
100
AcDbLine
 10
779.825541
 20
1109.439468
 30
0.0
 11
927.8255409999999
 21
1109.439468
 31
0.0
  0
LINE
  5
42D1
330
4729
100
AcDbEntity
  8
0
100
AcDbLine
 10
779.825541
 20
1094.439468
 30
0.0
 11
927.8255409999999
 21
1094.439468
 31
0.0
  0
LINE
  5
42D3
330
4729
100
AcDbEntity
  8
0
100
AcDbLine
 10
779.825541
 20
1079.439468
 30
0.0
 11
927.8255409999999
 21
1079.439468
 31
0.0
  0
LINE
  5
42D5
330
4729
100
AcDbEntity
  8
0
100
AcDbLine
 10
779.825541
 20
1036.439468
 30
0.0
 11
927.8255409999999
 21
1036.439468
 31
0.0
  0
LINE
  5
42D6
330
4729
100
AcDbEntity
  8
0
100
AcDbLine
 10
779.825541
 20
1051.439468
 30
0.0
 11
927.8255409999999
 21
1051.439468
 31
0.0
  0
LINE
  5
42D7
330
4729
100
AcDbEntity
  8
0
100
AcDbLine
 10
779.825541
 20
1021.439468
 30
0.0
 11
927.8255409999999
 21
1021.439468
 31
0.0
  0
LINE
  5
42D8
330
4729
100
AcDbEntity
  8
0
100
AcDbLine
 10
809.825541
 20
1124.439468
 30
0.0
 11
809.825541
 21
1139.439468
 31
0.0
  0
LINE
  5
42D9
330
4729
100
AcDbEntity
  8
0
100
AcDbLine
 10
824.825541
 20
1124.439468
 30
0.0
 11
824.825541
 21
1139.439468
 31
0.0
  0
LINE
  5
42DA
330
4729
100
AcDbEntity
  8
0
100
AcDbLine
 10
839.825541
 20
1124.439468
 30
0.0
 11
839.825541
 21
1139.439468
 31
0.0
  0
LINE
  5
42DB
330
4729
100
AcDbEntity
  8
0
100
AcDbLine
 10
867.825541
 20
1124.439468
 30
0.0
 11
867.825541
 21
1139.439468
 31
0.0
  0
LINE
  5
42DC
330
4729
100
AcDbEntity
  8
0
100
AcDbLine
 10
882.825541
 20
1124.439468
 30
0.0
 11
882.825541
 21
1139.439468
 31
0.0
  0
LINE
  5
42DD
330
4729
100
AcDbEntity
  8
0
100
AcDbLine
 10
897.825541
 20
1124.439468
 30
0.0
 11
897.825541
 21
1139.439468
 31
0.0
  0
TEXT
  5
42DE
330
4729
100
AcDbEntity
  8
0
100
AcDbText
 10
806.325541
 20
1110.66639
 30
0.0
 40
12.5
  1
PASSAVANT
 72
     4
 11
853.8255410000001
 21
1116.91639
 31
0.0
100
AcDbText
  0
CIRCLE
  5
42E0
330
4729
100
AcDbEntity
  8
0
100
AcDbCircle
 10
918.128841
 20
1129.742769
 30
0.0
 40
5.0
  0
LINE
  5
42E2
330
4729
100
AcDbEntity
  8
7A
100
AcDbLine
 10
918.128841
 20
1129.742769
 30
0.0
 11
923.8494039999999
 21
1129.742769
 31
0.0
1001
GENIUS_GENOREF_13
1005
42E7
  0
LINE
  5
42E3
330
4729
100
AcDbEntity
  8
7A
100
AcDbLine
 10
918.128841
 20
1129.742769
 30
0.0
 11
918.128841
 21
1135.463332
 31
0.0
1001
GENIUS_GENOREF_13
1005
42E7
  0
LINE
  5
42E4
330
4729
100
AcDbEntity
  8
7A
100
AcDbLine
 10
918.128841
 20
1129.742769
 30
0.0
 11
912.4082779999998
 21
1129.742769
 31
0.0
1001
GENIUS_GENOREF_13
1005
42E7
  0
LINE
  5
42E5
330
4729
100
AcDbEntity
  8
7A
100
AcDbLine
 10
918.128841
 20
1129.742769
 30
0.0
 11
918.128841
 21
1124.022206
 31
0.0
1001
GENIUS_GENOREF_13
1005
42E7
  0
POINT
  5
42E7
330
4729
100
AcDbEntity
  8
0
 60
     1
100
AcDbPoint
 10
0.0
 20
0.0
 30
0.0
1001
GENIUS_GENODEF_13
1002
{
1000
HIER
1070
    10
1002
}
1002
{
1000
MANEDIT
1070
     0
1002
}
1002
{
1000
NOSEL
1070
     0
1002
}
1002
{
1000
BEHIND
1070
     0
1002
}
1002
{
1000
REACTOR
1002
}
1001
GENIUS_GENOBJ-N-CRS_13
1002
{
1000
OWNER
1000
GEN
1002
}
1001
GENIUS_GENOENT_13
1002
{
1000
MYREF
1005
42E7
1002
}
1002
{
1000
GRP
1005
0
1002
}
1001
GENIUS_GENOLIS_13
1002
{
1000
ENT
1005
42E5
1005
42E4
1005
42E3
1005
42E2
1002
}
  0
ARC
  5
42E9
330
4729
100
AcDbEntity
  8
0
100
AcDbCircle
 10
853.8255410000001
 20
1065.439468
 30
0.0
 40
8.0
100
AcDbArc
 50
30.0
 51
150.0
  0
LINE
  5
42EA
330
4729
100
AcDbEntity
  8
0
100
AcDbLine
 10
839.825541
 20
1069.439468
 30
0.0
 11
846.8973369999998
 21
1069.439468
 31
0.0
1001
GENIUS_GENODEF_13
1002
{
1000
HIER
1070
     0
1002
}
1002
{
1000
MANEDIT
1070
     0
1002
}
1002
{
1000
NOSEL
1070
     0
1002
}
1002
{
1000
BEHIND
1070
     0
1002
}
1002
{
1000
REACTOR
1002
}
1001
GENIUS_GENOBJ-N-CEN_13
1002
{
1000
OWNER
1000
GEN
1002
}
  0
LINE
  5
42EC
330
4729
100
AcDbEntity
  8
0
100
AcDbLine
 10
839.825541
 20
1061.439468
 30
0.0
 11
846.8973369999998
 21
1061.439468
 31
0.0
1001
GENIUS_GENODEF_13
1002
{
1000
HIER
1070
     0
1002
}
1002
{
1000
MANEDIT
1070
     0
1002
}
1002
{
1000
NOSEL
1070
     0
1002
}
1002
{
1000
BEHIND
1070
     0
1002
}
1002
{
1000
REACTOR
1002
}
1001
GENIUS_GENOBJ-N-CEN_13
1002
{
1000
OWNER
1000
GEN
1002
}
  0
LINE
  5
42EE
330
4729
100
AcDbEntity
  8
0
100
AcDbLine
 10
860.7537439999999
 20
1061.439468
 30
0.0
 11
867.825541
 21
1061.439468
 31
0.0
1001
GENIUS_GENODEF_13
1002
{
1000
HIER
1070
     0
1002
}
1002
{
1000
MANEDIT
1070
     0
1002
}
1002
{
1000
NOSEL
1070
     0
1002
}
1002
{
1000
BEHIND
1070
     0
1002
}
1002
{
1000
REACTOR
1002
}
1001
GENIUS_GENOBJ-N-CEN_13
1002
{
1000
OWNER
1000
GEN
1002
}
  0
LINE
  5
42EF
330
4729
100
AcDbEntity
  8
0
100
AcDbLine
 10
860.7537439999999
 20
1069.439468
 30
0.0
 11
867.825541
 21
1069.439468
 31
0.0
1001
GENIUS_GENODEF_13
1002
{
1000
HIER
1070
     0
1002
}
1002
{
1000
MANEDIT
1070
     0
1002
}
1002
{
1000
NOSEL
1070
     0
1002
}
1002
{
1000
BEHIND
1070
     0
1002
}
1002
{
1000
REACTOR
1002
}
1001
GENIUS_GENOBJ-N-CEN_13
1002
{
1000
OWNER
1000
GEN
1002
}
  0
ARC
  5
42F0
330
4729
100
AcDbEntity
  8
0
100
AcDbCircle
 10
853.8255410000001
 20
1065.439468
 30
0.0
 40
10.0
100
AcDbArc
 50
156.421822
 51
203.578178
  0
ARC
  5
42F2
330
4729
100
AcDbEntity
  8
0
100
AcDbCircle
 10
853.8255410000001
 20
1065.439468
 30
0.0
 40
8.0
100
AcDbArc
 50
210.0
 51
330.0
  0
ARC
  5
42F3
330
4729
100
AcDbEntity
  8
0
100
AcDbCircle
 10
853.8255410000001
 20
1065.439468
 30
0.0
 40
10.0
100
AcDbArc
 50
336.421822
 51
23.578178
  0
DIMENSION
  5
4304
330
4729
100
AcDbEntity
  8
5
100
AcDbDimension
  2
*D0
 10
932.825541
 20
1165.25923
 30
0.0
 11
853.8255410000001
 21
1177.00923
 31
0.0
  1
<>
 71
     5
 42
-1.0
  3
GEN-ISO
100
AcDbAlignedDimension
 13
774.825541
 23
1138.439468
 33
0.0
 14
932.825541
 24
1138.439468
 34
0.0
100
AcDbRotatedDimension
1001
GENIUS_GENDTOL_13
1000

1000
h7
1000

1040
0.0
  0
DIMENSION
  5
4320
330
4729
100
AcDbEntity
  8
5
100
AcDbDimension
  2
*D1
 10
977.0958349999999
 20
1144.439468
 30
0.0
 11
965.3458349999999
 21
1065.439468
 31
0.0
  1
<>
 71
     5
 42
-1.0
  3
GEN-ISO
100
AcDbAlignedDimension
 13
926.825541
 23
986.439468
 33
0.0
 14
926.825541
 24
1144.439468
 34
0.0
 50
90.0
100
AcDbRotatedDimension
1001
GENIUS_GENDTOL_13
1000

1000
h7
1000

1040
0.0
  0
DIMENSION
  5
4347
330
4729
100
AcDbEntity
  8
5
100
AcDbDimension
  2
*D2
 10
597.1071389999999
 20
982.939468
 30
0.0
 11
585.3571389999999
 21
1065.439468
 31
0.0
 70
     1
  1
<>
 71
     5
 42
-1.0
  3
GEN-ISO
100
AcDbAlignedDimension
 13
697.825541
 23
1147.939468
 33
0.0
 14
697.825541
 24
982.939468
 34
0.0
1001
GENIUS_GENDTOL_13
1000

1000
h7
1000

1040
0.0
  0
LINE
  5
436D
330
4729
100
AcDbEntity
  8
7
100
AcDbLine
 10
697.825541
 20
1483.997044
 30
0.0
 11
697.825541
 21
1403.973931
 31
0.0
1001
GENIUS_GENODEF_13
1002
{
1000
HIER
1070
     0
1002
}
1002
{
1000
MANEDIT
1070
     0
1002
}
1002
{
1000
NOSEL
1070
     0
1002
}
1002
{
1000
BEHIND
1070
     0
1002
}
1002
{
1000
REACTOR
1002
}
1001
GENIUS_GENOBJ-N-CEN_13
1002
{
1000
OWNER
1000
GEN
1002
}
  0
LINE
  5
436E
330
4729
100
AcDbEntity
  8
7
100
AcDbLine
 10
688.325541
 20
1481.189918
 30
0.0
 11
688.325541
 21
1403.973931
 31
0.0
1001
GENIUS_VERSION2
1070
     2
1001
GENIUS_GENODEF_13
1002
{
1000
HIER
1070
     0
1002
}
1002
{
1000
MANEDIT
1070
     0
1002
}
1002
{
1000
NOSEL
1070
     0
1002
}
1002
{
1000
BEHIND
1070
     0
1002
}
1002
{
1000
REACTOR
1002
}
1001
GENIUS_GENOBJ-N-CEN_13
1002
{
1000
OWNER
1000
GEN
1002
}
  0
LINE
  5
436F
330
4729
100
AcDbEntity
  8
7
100
AcDbLine
 10
853.8255410000001
 20
1488.184883
 30
0.0
 11
853.8255410000001
 21
1229.938657
 31
0.0
1001
GENIUS_GENODEF_13
1002
{
1000
HIER
1070
     0
1002
}
1002
{
1000
MANEDIT
1070
     0
1002
}
1002
{
1000
NOSEL
1070
     0
1002
}
1002
{
1000
BEHIND
1070
     0
1002
}
1002
{
1000
REACTOR
1002
}
1001
GENIUS_GENOBJ-N-CEN_13
1002
{
1000
OWNER
1000
GEN
1002
}
  0
LINE
  5
4370
330
4729
100
AcDbEntity
  8
0
100
AcDbLine
 10
621.825541
 20
1473.957391
 30
0.0
 11
785.825541
 21
1473.957391
 31
0.0
  0
LINE
  5
4372
330
4729
100
AcDbEntity
  8
0
100
AcDbLine
 10
626.825541
 20
1468.957391
 30
0.0
 11
768.825541
 21
1468.957391
 31
0.0
  0
LINE
  5
4374
330
4729
100
AcDbEntity
  8
0
100
AcDbLine
 10
616.825541
 20
1420.957391
 30
0.0
 11
616.825541
 21
1466.957391
 31
0.0
1001
GENIUS_VERSION2
1070
     2
  0
LINE
  5
4376
330
4729
100
AcDbEntity
  8
0
100
AcDbLine
 10
614.825541
 20
1468.957391
 30
0.0
 11
616.825541
 21
1466.957391
 31
0.0
  0
LINE
  5
4377
330
4729
100
AcDbEntity
  8
0
100
AcDbLine
 10
621.825541
 20
1420.957391
 30
0.0
 11
621.825541
 21
1478.957391
 31
0.0
1001
GENIUS_VERSION2
1070
     2
  0
LINE
  5
4379
330
4729
100
AcDbEntity
  8
0
100
AcDbLine
 10
623.825541
 20
1418.957391
 30
0.0
 11
623.825541
 21
1473.957391
 31
0.0
1001
GENIUS_VERSION2
1070
     2
  0
LINE
  5
437B
330
4729
100
AcDbEntity
  8
0
100
AcDbLine
 10
626.825541
 20
1423.957391
 30
0.0
 11
626.825541
 21
1473.957391
 31
0.0
1001
GENIUS_VERSION2
1070
     2
  0
LINE
  5
437F
330
4729
100
AcDbEntity
  8
0
100
AcDbLine
 10
768.825541
 20
1423.957391
 30
0.0
 11
768.825541
 21
1473.957391
 31
0.0
1001
GENIUS_VERSION2
1070
     2
  0
LINE
  5
4380
330
4729
100
AcDbEntity
  8
0
100
AcDbLine
 10
771.825541
 20
1413.957391
 30
0.0
 11
771.825541
 21
1471.957391
 31
0.0
1001
GENIUS_VERSION2
1070
     2
  0
LINE
  5
4381
330
4729
100
AcDbEntity
  8
0
100
AcDbLine
 10
771.825541
 20
1471.957391
 30
0.0
 11
781.825541
 21
1471.957391
 31
0.0
  0
LINE
  5
4383
330
4729
100
AcDbEntity
  8
0
100
AcDbLine
 10
781.825541
 20
1418.957391
 30
0.0
 11
781.825541
 21
1471.957391
 31
0.0
1001
GENIUS_VERSION2
1070
     2
  0
LINE
  5
4385
330
4729
100
AcDbEntity
  8
0
100
AcDbLine
 10
783.825541
 20
1418.957391
 30
0.0
 11
783.825541
 21
1473.957391
 31
0.0
1001
GENIUS_VERSION2
1070
     2
  0
LINE
  5
4387
330
4729
100
AcDbEntity
  8
0
100
AcDbLine
 10
785.825541
 20
1418.957391
 30
0.0
 11
785.825541
 21
1478.957391
 31
0.0
1001
GENIUS_VERSION2
1070
     2
  0
LINE
  5
4389
330
4729
100
AcDbEntity
  8
0
100
AcDbLine
 10
793.3255410000001
 20
1418.957391
 30
0.0
 11
793.3255410000001
 21
1478.957391
 31
0.0
1001
GENIUS_VERSION2
1070
     2
  0
LINE
  5
438B
330
4729
100
AcDbEntity
  8
0
100
AcDbLine
 10
633.5723349999999
 20
1413.957391
 30
0.0
 11
777.5410759999999
 21
1413.957391
 31
0.0
  0
LINE
  5
438D
330
4729
100
AcDbEntity
  8
0
100
AcDbLine
 10
623.825541
 20
1418.957391
 30
0.0
 11
820.0008809999999
 21
1418.957391
 31
0.0
  0
LINE
  5
438F
330
4729
100
AcDbEntity
  8
0
100
AcDbLine
 10
626.825541
 20
1423.957391
 30
0.0
 11
768.825541
 21
1423.957391
 31
0.0
1001
GENIUS_VERSION2
1070
     2
  0
ARC
  5
4391
330
4729
100
AcDbEntity
  8
0
100
AcDbCircle
 10
623.825541
 20
1420.957391
 30
0.0
 40
2.0
100
AcDbArc
 50
180.0
 51
270.0
1001
GENIUS_GENODEF_13
1002
{
1000
HIER
1070
     0
1002
}
1002
{
1000
MANEDIT
1070
     0
1002
}
1002
{
1000
NOSEL
1070
     0
1002
}
1002
{
1000
BEHIND
1070
     0
1002
}
1002
{
1000
REACTOR
1002
}
1001
GENIUS_GENOBJ-N-FIL_13
1002
{
1000
OWNER
1000
GEN
1002
}
1001
GENIUS_VERSION2
1070
     2
  0
ARC
  5
4392
330
4729
100
AcDbEntity
  8
0
100
AcDbCircle
 10
623.825541
 20
1420.957391
 30
0.0
 40
7.0
100
AcDbArc
 50
180.0
 51
270.0
1001
GENIUS_GENODEF_13
1002
{
1000
HIER
1070
     0
1002
}
1002
{
1000
MANEDIT
1070
     0
1002
}
1002
{
1000
NOSEL
1070
     0
1002
}
1002
{
1000
BEHIND
1070
     0
1002
}
1002
{
1000
REACTOR
1002
}
1001
GENIUS_GENOBJ-N-FIL_13
1002
{
1000
OWNER
1000
GEN
1002
}
1001
GENIUS_VERSION2
1070
     2
  0
ARC
  5
4394
330
4729
100
AcDbEntity
  8
0
100
AcDbCircle
 10
623.825541
 20
1406.957391
 30
0.0
 40
7.0
100
AcDbArc
 50
6.946678
 51
90.0
1001
GENIUS_GENODEF_13
1002
{
1000
HIER
1070
     0
1002
}
1002
{
1000
MANEDIT
1070
     0
1002
}
1002
{
1000
NOSEL
1070
     0
1002
}
1002
{
1000
BEHIND
1070
     0
1002
}
1002
{
1000
REACTOR
1002
}
1001
GENIUS_GENOBJ-N-FIL_13
1002
{
1000
OWNER
1000
GEN
1002
}
1001
GENIUS_VERSION2
1070
     2
  0
ARC
  5
4395
330
4729
100
AcDbEntity
  8
0
100
AcDbCircle
 10
623.825541
 20
1406.957391
 30
0.0
 40
12.0
100
AcDbArc
 50
6.946678
 51
90.0
1001
GENIUS_GENODEF_13
1002
{
1000
HIER
1070
     0
1002
}
1002
{
1000
MANEDIT
1070
     0
1002
}
1002
{
1000
NOSEL
1070
     0
1002
}
1002
{
1000
BEHIND
1070
     0
1002
}
1002
{
1000
REACTOR
1002
}
1001
GENIUS_GENOBJ-N-FIL_13
1002
{
1000
OWNER
1000
GEN
1002
}
1001
GENIUS_VERSION2
1070
     2
  0
LINE
  5
4397
330
4729
100
AcDbEntity
  8
0
100
AcDbLine
 10
637.809758
 20
1423.957391
 30
0.0
 11
637.809758
 21
1418.957391
 31
0.0
  0
LINE
  5
4398
330
4729
100
AcDbEntity
  8
0
100
AcDbLine
 10
757.8413229999999
 20
1423.957391
 30
0.0
 11
757.8413229999999
 21
1418.957391
 31
0.0
1001
GENIUS_VERSION2
1070
     2
  0
LINE
  5
439A
330
4729
100
AcDbEntity
  8
0
100
AcDbLine
 10
701.825541
 20
1418.957391
 30
0.0
 11
701.825541
 21
1413.957391
 31
0.0
1001
GENIUS_GENODEF_13
1002
{
1000
HIER
1070
     0
1002
}
1002
{
1000
MANEDIT
1070
     0
1002
}
1002
{
1000
NOSEL
1070
     0
1002
}
1002
{
1000
BEHIND
1070
     0
1002
}
1002
{
1000
REACTOR
1002
}
1001
GENIUS_GENOBJ-N-CEN_13
1002
{
1000
OWNER
1000
GEN
1002
}
  0
LINE
  5
439C
330
4729
100
AcDbEntity
  8
0
100
AcDbLine
 10
693.825541
 20
1418.957391
 30
0.0
 11
693.825541
 21
1413.957391
 31
0.0
1001
GENIUS_VERSION2
1070
     2
1001
GENIUS_GENODEF_13
1002
{
1000
HIER
1070
     0
1002
}
1002
{
1000
MANEDIT
1070
     0
1002
}
1002
{
1000
NOSEL
1070
     0
1002
}
1002
{
1000
BEHIND
1070
     0
1002
}
1002
{
1000
REACTOR
1002
}
1001
GENIUS_GENOBJ-N-CEN_13
1002
{
1000
OWNER
1000
GEN
1002
}
  0
LINE
  5
439E
330
4729
100
AcDbEntity
  8
0
100
AcDbLine
 10
777.5410759999999
 20
1418.957391
 30
0.0
 11
777.5410759999999
 21
1413.957391
 31
0.0
1001
GENIUS_VERSION2
1070
     2
1001
GENIUS_GENODEF_13
1002
{
1000
HIER
1070
     0
1002
}
1002
{
1000
MANEDIT
1070
     0
1002
}
1002
{
1000
NOSEL
1070
     0
1002
}
1002
{
1000
BEHIND
1070
     0
1002
}
1002
{
1000
REACTOR
1002
}
1001
GENIUS_GENOBJ-N-CEN_13
1002
{
1000
OWNER
1000
GEN
1002
}
  0
LINE
  5
439F
330
4729
100
AcDbEntity
  8
0
100
AcDbLine
 10
912.8255410000001
 20
1243.957391
 30
0.0
 11
912.8255410000001
 21
1317.80269
 31
0.0
  0
LINE
  5
43A0
330
4729
100
AcDbEntity
  8
0
100
AcDbLine
 10
794.825541
 20
1243.957391
 30
0.0
 11
794.825541
 21
1317.80269
 31
0.0
  0
LINE
  5
43A1
330
4729
100
AcDbEntity
  8
0
100
AcDbLine
 10
907.825541
 20
1317.80269
 30
0.0
 11
883.766096
 21
1317.80269
 31
0.0
  0
LINE
  5
43A3
330
4729
100
AcDbEntity
  8
0
100
AcDbLine
 10
793.825541
 20
1319.534741
 30
0.0
 11
782.659423
 21
1325.206802
 31
0.0
  0
LINE
  5
43A4
330
4729
100
AcDbEntity
  8
0
100
AcDbLine
 10
780.3923319999999
 20
1327.551544
 30
0.0
 11
778.973163
 21
1330.594961
 31
0.0
1001
GENIUS_VERSION2
1070
     2
  0
ARC
  5
43A5
330
4729
100
AcDbEntity
  8
0
100
AcDbCircle
 10
792.825541
 20
1317.80269
 30
0.0
 40
2.0
100
AcDbArc
 50
0.0
 51
60.0
1001
GENIUS_GENODEF_13
1002
{
1000
HIER
1070
     0
1002
}
1002
{
1000
MANEDIT
1070
     0
1002
}
1002
{
1000
NOSEL
1070
     0
1002
}
1002
{
1000
BEHIND
1070
     0
1002
}
1002
{
1000
REACTOR
1002
}
1001
GENIUS_GENOBJ-N-FIL_13
1002
{
1000
OWNER
1000
GEN
1002
}
  0
LINE
  5
43A7
330
4729
100
AcDbEntity
  8
0
100
AcDbLine
 10
778.0057839999999
 20
1331.56234
 30
0.0
 11
647.8753809999999
 21
1384.243144
 31
0.0
1001
GENIUS_VERSION2
1070
     2
  0
ARC
  5
43AA
330
4729
100
AcDbEntity
  8
0
100
AcDbCircle
 10
660.553929
 20
1411.432377
 30
0.0
 40
30.0
100
AcDbArc
 50
186.946678
 51
245.0
1001
GENIUS_GENODEF_13
1002
{
1000
HIER
1070
     0
1002
}
1002
{
1000
MANEDIT
1070
     0
1002
}
1002
{
1000
NOSEL
1070
     0
1002
}
1002
{
1000
BEHIND
1070
     0
1002
}
1002
{
1000
REACTOR
1002
}
1001
GENIUS_GENOBJ-N-FIL_13
1002
{
1000
OWNER
1000
GEN
1002
}
1001
GENIUS_VERSION2
1070
     2
  0
ARC
  5
43AB
330
4729
100
AcDbEntity
  8
0
100
AcDbCircle
 10
660.553929
 20
1411.432377
 30
0.0
 40
25.0
100
AcDbArc
 50
186.946678
 51
245.0
1001
GENIUS_GENODEF_13
1002
{
1000
HIER
1070
     0
1002
}
1002
{
1000
MANEDIT
1070
     0
1002
}
1002
{
1000
NOSEL
1070
     0
1002
}
1002
{
1000
BEHIND
1070
     0
1002
}
1002
{
1000
REACTOR
1002
}
1001
GENIUS_GENOBJ-N-FIL_13
1002
{
1000
OWNER
1000
GEN
1002
}
1001
GENIUS_VERSION2
1070
     2
  0
LINE
  5
43AD
330
4729
100
AcDbEntity
  8
0
100
AcDbLine
 10
780.7786139999999
 20
1335.786238
 30
0.0
 11
649.9884719999999
 21
1388.774683
 31
0.0
1001
GENIUS_VERSION2
1070
     2
  0
ARC
  5
43AF
330
4729
100
AcDbEntity
  8
0
100
AcDbCircle
 10
777.160548
 20
1329.749725
 30
0.0
 40
2.0
100
AcDbArc
 50
25.0
 51
65.0
1001
GENIUS_GENODEF_13
1002
{
1000
HIER
1070
     0
1002
}
1002
{
1000
MANEDIT
1070
     0
1002
}
1002
{
1000
NOSEL
1070
     0
1002
}
1002
{
1000
BEHIND
1070
     0
1002
}
1002
{
1000
REACTOR
1002
}
1001
GENIUS_GENOBJ-N-FIL_13
1002
{
1000
OWNER
1000
GEN
1002
}
1001
GENIUS_VERSION2
1070
     2
  0
LINE
  5
43B0
330
4729
100
AcDbEntity
  8
0
100
AcDbLine
 10
784.9163009999999
 20
1329.680869
 30
0.0
 11
783.197061
 21
1333.36779
 31
0.0
1001
GENIUS_VERSION2
1070
     2
  0
LINE
  5
43B2
330
4729
100
AcDbEntity
  8
0
100
AcDbLine
 10
780.7786139999999
 20
1335.786238
 30
0.0
 11
649.9884719999999
 21
1388.774683
 31
0.0
1001
GENIUS_VERSION2
1070
     2
  0
LINE
  5
43B4
330
4729
100
AcDbEntity
  8
0
100
AcDbLine
 10
796.325541
 20
1323.864868
 30
0.0
 11
785.384013
 21
1329.204803
 31
0.0
1001
GENIUS_VERSION2
1070
     2
  0
ARC
  5
43B7
330
4729
100
AcDbEntity
  8
0
100
AcDbCircle
 10
778.665522
 20
1331.254699
 30
0.0
 40
5.0
100
AcDbArc
 50
25.0
 51
65.0
1001
GENIUS_GENODEF_13
1002
{
1000
HIER
1070
     0
1002
}
1002
{
1000
MANEDIT
1070
     0
1002
}
1002
{
1000
NOSEL
1070
     0
1002
}
1002
{
1000
BEHIND
1070
     0
1002
}
1002
{
1000
REACTOR
1002
}
1001
GENIUS_GENOBJ-N-FIL_13
1002
{
1000
OWNER
1000
GEN
1002
}
1001
GENIUS_VERSION2
1070
     2
  0
ARC
  5
43B8
330
4729
100
AcDbEntity
  8
0
100
AcDbCircle
 10
792.825541
 20
1317.80269
 30
0.0
 40
7.0
100
AcDbArc
 50
0.0
 51
60.0
1001
GENIUS_GENODEF_13
1002
{
1000
HIER
1070
     0
1002
}
1002
{
1000
MANEDIT
1070
     0
1002
}
1002
{
1000
NOSEL
1070
     0
1002
}
1002
{
1000
BEHIND
1070
     0
1002
}
1002
{
1000
REACTOR
1002
}
1001
GENIUS_GENOBJ-N-FIL_13
1002
{
1000
OWNER
1000
GEN
1002
}
  0
LINE
  5
43BA
330
4729
100
AcDbEntity
  8
0
100
AcDbLine
 10
799.825541
 20
1243.957391
 30
0.0
 11
799.825541
 21
1317.80269
 31
0.0
  0
LINE
  5
43BD
330
4729
100
AcDbEntity
  8
0
100
AcDbLine
 10
820.0008809999999
 20
1418.957391
 30
0.0
 11
820.0008809999999
 21
1333.36779
 31
0.0
  0
ARC
  5
43C4
330
4729
100
AcDbEntity
  8
0
100
AcDbCircle
 10
914.825541
 20
1317.80269
 30
0.0
 40
7.0
100
AcDbArc
 50
120.0
 51
180.0
1001
GENIUS_GENODEF_13
1002
{
1000
HIER
1070
     0
1002
}
1002
{
1000
MANEDIT
1070
     0
1002
}
1002
{
1000
NOSEL
1070
     0
1002
}
1002
{
1000
BEHIND
1070
     0
1002
}
1002
{
1000
REACTOR
1002
}
1001
GENIUS_GENOBJ-N-FIL_13
1002
{
1000
OWNER
1000
GEN
1002
}
  0
ARC
  5
43C7
330
4729
100
AcDbEntity
  8
0
100
AcDbCircle
 10
914.825541
 20
1317.80269
 30
0.0
 40
2.0
100
AcDbArc
 50
120.0
 51
180.0
1001
GENIUS_GENODEF_13
1002
{
1000
HIER
1070
     0
1002
}
1002
{
1000
MANEDIT
1070
     0
1002
}
1002
{
1000
NOSEL
1070
     0
1002
}
1002
{
1000
BEHIND
1070
     0
1002
}
1002
{
1000
REACTOR
1002
}
1001
GENIUS_GENOBJ-N-FIL_13
1002
{
1000
OWNER
1000
GEN
1002
}
  0
LINE
  5
43CA
330
4729
100
AcDbEntity
  8
0
100
AcDbLine
 10
907.825541
 20
1243.957391
 30
0.0
 11
907.825541
 21
1317.80269
 31
0.0
  0
ARC
  5
43CB
330
4729
100
AcDbEntity
  8
0
100
AcDbCircle
 10
853.8255410000001
 20
1498.607177
 30
0.0
 40
183.266743
100
AcDbArc
 50
250.001629
 51
289.998371
  0
LINE
  5
43CC
330
4729
100
AcDbEntity
  8
0
100
AcDbLine
 10
823.8849849999999
 20
1317.80269
 30
0.0
 11
799.825541
 21
1317.80269
 31
0.0
  0
ARC
  5
43CD
330
4729
100
AcDbEntity
  8
0
100
AcDbCircle
 10
853.8255410000001
 20
1498.607177
 30
0.0
 40
180.766743
100
AcDbArc
 50
250.001629
 51
289.998371
  0
LINE
  5
43CF
330
4729
100
AcDbEntity
  8
0
100
AcDbLine
 10
791.14952
 20
1326.390988
 30
0.0
 11
792.0045039999999
 21
1328.740244
 31
0.0
  0
LINE
  5
43D0
330
4729
100
AcDbEntity
  8
0
100
AcDbLine
 10
916.5015609999999
 20
1326.390988
 30
0.0
 11
915.646577
 21
1328.740244
 31
0.0
  0
LINE
  5
43D1
330
4729
100
AcDbEntity
  8
0
100
AcDbLine
 10
792.0045039999999
 20
1328.740244
 30
0.0
 11
849.825541
 21
1328.740244
 31
0.0
  0
LINE
  5
43D2
330
4729
100
AcDbEntity
  8
0
100
AcDbLine
 10
783.197061
 20
1333.36779
 30
0.0
 11
849.825541
 21
1333.36779
 31
0.0
1001
GENIUS_VERSION2
1070
     2
  0
ARC
  5
43D3
330
4729
100
AcDbEntity
  8
0
100
AcDbCircle
 10
784.9238709999999
 20
1329.664635
 30
0.0
 40
5.0
100
AcDbArc
 50
205.0
 51
243.070763
1001
GENIUS_GENODEF_13
1002
{
1000
HIER
1070
     0
1002
}
1002
{
1000
MANEDIT
1070
     0
1002
}
1002
{
1000
NOSEL
1070
     0
1002
}
1002
{
1000
BEHIND
1070
     0
1002
}
1002
{
1000
REACTOR
1002
}
1001
GENIUS_GENOBJ-N-FIL_13
1002
{
1000
OWNER
1000
GEN
1002
}
1001
GENIUS_VERSION2
1070
     2
  0
ARC
  5
43D4
330
4729
100
AcDbEntity
  8
0
100
AcDbCircle
 10
785.8226089999999
 20
1330.103487
 30
0.0
 40
1.0
100
AcDbArc
 50
205.0
 51
243.985639
1001
GENIUS_GENODEF_13
1002
{
1000
HIER
1070
     0
1002
}
1002
{
1000
MANEDIT
1070
     0
1002
}
1002
{
1000
NOSEL
1070
     0
1002
}
1002
{
1000
BEHIND
1070
     0
1002
}
1002
{
1000
REACTOR
1002
}
1001
GENIUS_GENOBJ-N-FIL_13
1002
{
1000
OWNER
1000
GEN
1002
}
1001
GENIUS_VERSION2
1070
     2
  0
ARC
  5
43D6
330
4729
100
AcDbEntity
  8
0
100
AcDbCircle
 10
922.72721
 20
1329.664635
 30
0.0
 40
5.0
100
AcDbArc
 50
296.929237
 51
335.0
1001
GENIUS_GENODEF_13
1002
{
1000
HIER
1070
     0
1002
}
1002
{
1000
MANEDIT
1070
     0
1002
}
1002
{
1000
NOSEL
1070
     0
1002
}
1002
{
1000
BEHIND
1070
     0
1002
}
1002
{
1000
REACTOR
1002
}
1001
GENIUS_GENOBJ-N-FIL_13
1002
{
1000
OWNER
1000
GEN
1002
}
1001
GENIUS_VERSION2
1070
     2
  0
LINE
  5
43D7
330
4729
100
AcDbEntity
  8
0
100
AcDbLine
 10
913.8255410000001
 20
1319.534741
 30
0.0
 11
924.991658
 21
1325.206802
 31
0.0
  0
LINE
  5
43D8
330
4729
100
AcDbEntity
  8
0
100
AcDbLine
 10
911.325541
 20
1323.864868
 30
0.0
 11
922.267068
 21
1329.204803
 31
0.0
1001
GENIUS_VERSION2
1070
     2
  0
LINE
  5
43D9
330
4729
100
AcDbEntity
  8
0
100
AcDbLine
 10
922.7347800000002
 20
1329.680869
 30
0.0
 11
923.694155
 21
1331.738256
 31
0.0
1001
GENIUS_VERSION2
1070
     2
  0
LINE
  5
43DA
330
4729
100
AcDbEntity
  8
0
100
AcDbLine
 10
927.2587489999999
 20
1327.551544
 30
0.0
 11
928.6779179999999
 21
1330.594961
 31
0.0
1001
GENIUS_VERSION2
1070
     2
  0
ARC
  5
43DB
330
4729
100
AcDbEntity
  8
0
100
AcDbCircle
 10
921.8284719999999
 20
1330.103487
 30
0.0
 40
1.0
100
AcDbArc
 50
296.014361
 51
335.0
1001
GENIUS_GENODEF_13
1002
{
1000
HIER
1070
     0
1002
}
1002
{
1000
MANEDIT
1070
     0
1002
}
1002
{
1000
NOSEL
1070
     0
1002
}
1002
{
1000
BEHIND
1070
     0
1002
}
1002
{
1000
REACTOR
1002
}
1001
GENIUS_GENOBJ-N-FIL_13
1002
{
1000
OWNER
1000
GEN
1002
}
1001
GENIUS_VERSION2
1070
     2
  0
LINE
  5
43DC
330
4729
100
AcDbEntity
  8
0
100
AcDbLine
 10
932.825541
 20
1468.957391
 30
0.0
 11
930.8255410000001
 21
1466.957391
 31
0.0
  0
LINE
  5
43DD
330
4729
100
AcDbEntity
  8
0
100
AcDbLine
 10
932.825541
 20
1468.957391
 30
0.0
 11
932.825541
 21
1478.957391
 31
0.0
1001
GENIUS_VERSION2
1070
     2
  0
LINE
  5
43DE
330
4729
100
AcDbEntity
  8
0
100
AcDbLine
 10
928.6779179999999
 20
1330.594961
 30
0.0
 11
930.8255410000001
 21
1466.957391
 31
0.0
  0
LINE
  5
43DF
330
4729
100
AcDbEntity
  8
0
100
AcDbLine
 10
923.694155
 20
1331.738256
 30
0.0
 11
926.0010819999999
 21
1478.957391
 31
0.0
1001
GENIUS_VERSION2
1070
     2
  0
LINE
  5
43E3
330
4729
100
AcDbEntity
  8
3
100
AcDbLine
 10
912.8255410000001
 20
1303.957391
 30
0.0
 11
856.325541
 21
1303.957391
 31
0.0
  0
LINE
  5
43E5
330
4729
100
AcDbEntity
  8
0
100
AcDbLine
 10
907.825541
 20
1308.957391
 30
0.0
 11
856.325541
 21
1308.957391
 31
0.0
  0
ARC
  5
43E8
330
4729
100
AcDbEntity
  8
0
100
AcDbCircle
 10
856.325541
 20
1306.457391
 30
0.0
 40
2.5
100
AcDbArc
 50
90.0
 51
270.0
  0
LINE
  5
43ED
330
4729
100
AcDbEntity
  8
0
100
AcDbLine
 10
912.8255410000001
 20
1303.957391
 30
0.0
 11
926.9893919999999
 21
1327.05048
 31
0.0
  0
LINE
  5
43EE
330
4729
100
AcDbEntity
  8
0
100
AcDbLine
 10
843.825541
 20
1324.740244
 30
0.0
 11
863.8255410000001
 21
1324.740244
 31
0.0
  0
LINE
  5
43F0
330
4729
100
AcDbEntity
  8
0
100
AcDbLine
 10
843.825541
 20
1321.740244
 30
0.0
 11
863.8255410000001
 21
1321.740244
 31
0.0
  0
ARC
  5
43F2
330
4729
100
AcDbEntity
  8
0
100
AcDbCircle
 10
863.8255410000001
 20
1323.240244
 30
0.0
 40
1.5
100
AcDbArc
 50
270.0
 51
90.0
  0
ARC
  5
43F3
330
4729
100
AcDbEntity
  8
0
100
AcDbCircle
 10
843.825541
 20
1323.240244
 30
0.0
 40
1.5
100
AcDbArc
 50
90.0
 51
270.0
  0
LINE
  5
43F4
330
4729
100
AcDbEntity
  8
0
100
AcDbLine
 10
843.825541
 20
1321.740244
 30
0.0
 11
843.825541
 21
1318.117245
 31
0.0
  0
LINE
  5
43F6
330
4729
100
AcDbEntity
  8
0
100
AcDbLine
 10
863.8255410000001
 20
1321.740244
 30
0.0
 11
863.8255410000001
 21
1318.117245
 31
0.0
  0
LINE
  5
43F7
330
4729
100
AcDbEntity
  8
0
100
AcDbLine
 10
857.825541
 20
1458.957391
 30
0.0
 11
857.825541
 21
1362.055903
 31
0.0
1001
GENIUS_GENODEF_13
1002
{
1000
HIER
1070
     0
1002
}
1002
{
1000
MANEDIT
1070
     0
1002
}
1002
{
1000
NOSEL
1070
     0
1002
}
1002
{
1000
BEHIND
1070
     0
1002
}
1002
{
1000
REACTOR
1002
}
1001
GENIUS_GENOBJ-N-CEN_13
1002
{
1000
OWNER
1000
GEN
1002
}
  0
LINE
  5
43F9
330
4729
100
AcDbEntity
  8
0
100
AcDbLine
 10
849.825541
 20
1458.957391
 30
0.0
 11
849.825541
 21
1362.055903
 31
0.0
1001
GENIUS_VERSION2
1070
     2
1001
GENIUS_GENODEF_13
1002
{
1000
HIER
1070
     0
1002
}
1002
{
1000
MANEDIT
1070
     0
1002
}
1002
{
1000
NOSEL
1070
     0
1002
}
1002
{
1000
BEHIND
1070
     0
1002
}
1002
{
1000
REACTOR
1002
}
1001
GENIUS_GENOBJ-N-CEN_13
1002
{
1000
OWNER
1000
GEN
1002
}
  0
LINE
  5
43FB
330
4729
100
AcDbEntity
  8
0
100
AcDbLine
 10
857.825541
 20
1333.36779
 30
0.0
 11
923.71969
 21
1333.36779
 31
0.0
1001
GENIUS_VERSION2
1070
     2
  0
LINE
  5
43FC
330
4729
100
AcDbEntity
  8
0
100
AcDbLine
 10
857.825541
 20
1328.740244
 30
0.0
 11
915.646577
 21
1328.740244
 31
0.0
  0
CIRCLE
  5
43FD
330
4729
100
AcDbEntity
  8
0
100
AcDbCircle
 10
853.8255410000001
 20
1357.583767
 30
0.0
 40
6.0
  0
LINE
  5
43FE
330
4729
100
AcDbEntity
  8
0
100
AcDbLine
 10
857.825541
 20
1353.111631
 30
0.0
 11
857.825541
 21
1324.740244
 31
0.0
1001
GENIUS_GENODEF_13
1002
{
1000
HIER
1070
     0
1002
}
1002
{
1000
MANEDIT
1070
     0
1002
}
1002
{
1000
NOSEL
1070
     0
1002
}
1002
{
1000
BEHIND
1070
     0
1002
}
1002
{
1000
REACTOR
1002
}
1001
GENIUS_GENOBJ-N-CEN_13
1002
{
1000
OWNER
1000
GEN
1002
}
  0
LINE
  5
43FF
330
4729
100
AcDbEntity
  8
0
100
AcDbLine
 10
849.825541
 20
1353.111631
 30
0.0
 11
849.825541
 21
1324.740244
 31
0.0
1001
GENIUS_VERSION2
1070
     2
1001
GENIUS_GENODEF_13
1002
{
1000
HIER
1070
     0
1002
}
1002
{
1000
MANEDIT
1070
     0
1002
}
1002
{
1000
NOSEL
1070
     0
1002
}
1002
{
1000
BEHIND
1070
     0
1002
}
1002
{
1000
REACTOR
1002
}
1001
GENIUS_GENOBJ-N-CEN_13
1002
{
1000
OWNER
1000
GEN
1002
}
  0
LINE
  5
4400
330
4729
100
AcDbEntity
  8
7A
100
AcDbLine
 10
842.4298140000001
 20
1357.583767
 30
0.0
 11
863.747631
 21
1357.583767
 31
0.0
1001
GENIUS_GENODEF_13
1002
{
1000
HIER
1070
     0
1002
}
1002
{
1000
MANEDIT
1070
     0
1002
}
1002
{
1000
NOSEL
1070
     0
1002
}
1002
{
1000
BEHIND
1070
     0
1002
}
1002
{
1000
REACTOR
1002
}
1001
GENIUS_GENOBJ-N-CEN_13
1002
{
1000
OWNER
1000
GEN
1002
}
  0
LINE
  5
4401
330
4729
100
AcDbEntity
  8
0
100
AcDbLine
 10
857.825541
 20
1418.957391
 30
0.0
 11
925.0608810000001
 21
1418.957391
 31
0.0
1001
GENIUS_VERSION2
1070
     2
  0
LINE
  5
4402
330
4729
100
AcDbEntity
  8
0
100
AcDbLine
 10
793.3255410000001
 20
1458.957391
 30
0.0
 11
925.687682
 21
1458.957391
 31
0.0
1001
GENIUS_VERSION2
1070
     2
  0
LINE
  5
4404
330
4729
100
AcDbEntity
  8
0
100
AcDbLine
 10
795.325541
 20
1475.957391
 30
0.0
 11
923.687682
 21
1475.957391
 31
0.0
  0
LINE
  5
4406
330
4729
100
AcDbEntity
  8
0
100
AcDbLine
 10
795.325541
 20
1472.957391
 30
0.0
 11
923.687682
 21
1472.957391
 31
0.0
  0
LINE
  5
4408
330
4729
100
AcDbEntity
  8
0
100
AcDbLine
 10
795.325541
 20
1465.957391
 30
0.0
 11
923.687682
 21
1465.957391
 31
0.0
  0
LINE
  5
440A
330
4729
100
AcDbEntity
  8
0
100
AcDbLine
 10
795.325541
 20
1461.957391
 30
0.0
 11
923.687682
 21
1461.957391
 31
0.0
  0
LINE
  5
440E
330
4729
100
AcDbEntity
  8
0
100
AcDbLine
 10
848.825541
 20
1472.957391
 30
0.0
 11
848.825541
 21
1465.957391
 31
0.0
1001
GENIUS_GENODEF_13
1002
{
1000
HIER
1070
     0
1002
}
1002
{
1000
MANEDIT
1070
     0
1002
}
1002
{
1000
NOSEL
1070
     0
1002
}
1002
{
1000
BEHIND
1070
     0
1002
}
1002
{
1000
REACTOR
1002
}
1001
GENIUS_GENOBJ-N-CEN_13
1002
{
1000
OWNER
1000
GEN
1002
}
  0
LINE
  5
4410
330
4729
100
AcDbEntity
  8
0
100
AcDbLine
 10
858.825541
 20
1472.957391
 30
0.0
 11
858.825541
 21
1465.957391
 31
0.0
1001
GENIUS_GENODEF_13
1002
{
1000
HIER
1070
     0
1002
}
1002
{
1000
MANEDIT
1070
     0
1002
}
1002
{
1000
NOSEL
1070
     0
1002
}
1002
{
1000
BEHIND
1070
     0
1002
}
1002
{
1000
REACTOR
1002
}
1001
GENIUS_GENOBJ-N-CEN_13
1002
{
1000
OWNER
1000
GEN
1002
}
  0
LINE
  5
4412
330
4729
100
AcDbEntity
  8
0
100
AcDbLine
 10
843.825541
 20
1472.957391
 30
0.0
 11
843.825541
 21
1465.957391
 31
0.0
1001
GENIUS_GENODEF_13
1002
{
1000
HIER
1070
     0
1002
}
1002
{
1000
MANEDIT
1070
     0
1002
}
1002
{
1000
NOSEL
1070
     0
1002
}
1002
{
1000
BEHIND
1070
     0
1002
}
1002
{
1000
REACTOR
1002
}
1001
GENIUS_GENOBJ-N-CEN_13
1002
{
1000
OWNER
1000
GEN
1002
}
  0
LINE
  5
4414
330
4729
100
AcDbEntity
  8
0
100
AcDbLine
 10
863.8255410000001
 20
1472.957391
 30
0.0
 11
863.8255410000001
 21
1465.957391
 31
0.0
1001
GENIUS_VERSION2
1070
     2
1001
GENIUS_GENODEF_13
1002
{
1000
HIER
1070
     0
1002
}
1002
{
1000
MANEDIT
1070
     0
1002
}
1002
{
1000
NOSEL
1070
     0
1002
}
1002
{
1000
BEHIND
1070
     0
1002
}
1002
{
1000
REACTOR
1002
}
1001
GENIUS_GENOBJ-N-CEN_13
1002
{
1000
OWNER
1000
GEN
1002
}
  0
LINE
  5
4417
330
4729
100
AcDbEntity
  8
0
100
AcDbLine
 10
795.325541
 20
1458.957391
 30
0.0
 11
795.325541
 21
1478.957391
 31
0.0
1001
GENIUS_VERSION2
1070
     2
  0
LINE
  5
441B
330
4729
100
AcDbEntity
  8
0
100
AcDbLine
 10
923.687682
 20
1458.957391
 30
0.0
 11
923.687682
 21
1478.957391
 31
0.0
  0
LINE
  5
441D
330
4729
100
AcDbEntity
  8
0
100
AcDbLine
 10
857.825541
 20
1448.957391
 30
0.0
 11
925.687682
 21
1448.957391
 31
0.0
1001
GENIUS_VERSION2
1070
     2
  0
LINE
  5
441F
330
4729
100
AcDbEntity
  8
7A
100
AcDbLine
 10
891.7566109999999
 20
1452.44083
 30
0.0
 11
891.7566109999999
 21
1412.611353
 31
0.0
1001
GENIUS_VERSION2
1070
     2
1001
GENIUS_GENODEF_13
1002
{
1000
HIER
1070
     0
1002
}
1002
{
1000
MANEDIT
1070
     0
1002
}
1002
{
1000
NOSEL
1070
     0
1002
}
1002
{
1000
BEHIND
1070
     0
1002
}
1002
{
1000
REACTOR
1002
}
1001
GENIUS_GENOBJ-N-CEN_13
1002
{
1000
OWNER
1000
GEN
1002
}
  0
LINE
  5
4421
330
4729
100
AcDbEntity
  8
0
100
AcDbLine
 10
894.7566109999998
 20
1448.957391
 30
0.0
 11
894.7566109999998
 21
1425.957391
 31
0.0
1001
GENIUS_VERSION2
1070
     2
1001
GENIUS_GENODEF_13
1002
{
1000
HIER
1070
     0
1002
}
1002
{
1000
MANEDIT
1070
     0
1002
}
1002
{
1000
NOSEL
1070
     0
1002
}
1002
{
1000
BEHIND
1070
     0
1002
}
1002
{
1000
REACTOR
1002
}
1001
GENIUS_GENOBJ-N-CEN_13
1002
{
1000
OWNER
1000
GEN
1002
}
  0
LINE
  5
4423
330
4729
100
AcDbEntity
  8
0
100
AcDbLine
 10
888.7566109999999
 20
1448.957391
 30
0.0
 11
888.7566109999999
 21
1425.957391
 31
0.0
1001
GENIUS_VERSION2
1070
     2
1001
GENIUS_GENODEF_13
1002
{
1000
HIER
1070
     0
1002
}
1002
{
1000
MANEDIT
1070
     0
1002
}
1002
{
1000
NOSEL
1070
     0
1002
}
1002
{
1000
BEHIND
1070
     0
1002
}
1002
{
1000
REACTOR
1002
}
1001
GENIUS_GENOBJ-N-CEN_13
1002
{
1000
OWNER
1000
GEN
1002
}
  0
LINE
  5
4427
330
4729
100
AcDbEntity
  8
0
100
AcDbLine
 10
884.2566109999999
 20
1421.957391
 30
0.0
 11
899.2566109999998
 21
1421.957391
 31
0.0
1001
GENIUS_VERSION2
1070
     2
  0
LINE
  5
4429
330
4729
100
AcDbEntity
  8
0
100
AcDbLine
 10
899.7566109999999
 20
1425.457391
 30
0.0
 11
899.7566109999999
 21
1422.457391
 31
0.0
1001
GENIUS_VERSION2
1070
     2
1001
GENIUS_GENODEF_13
1002
{
1000
HIER
1070
     0
1002
}
1002
{
1000
MANEDIT
1070
     0
1002
}
1002
{
1000
NOSEL
1070
     0
1002
}
1002
{
1000
BEHIND
1070
     0
1002
}
1002
{
1000
REACTOR
1002
}
1001
GENIUS_GENOBJ-N-CEN_13
1002
{
1000
OWNER
1000
GEN
1002
}
  0
LINE
  5
442B
330
4729
100
AcDbEntity
  8
0
100
AcDbLine
 10
883.7566109999999
 20
1425.457391
 30
0.0
 11
883.7566109999999
 21
1422.457391
 31
0.0
1001
GENIUS_VERSION2
1070
     2
1001
GENIUS_GENODEF_13
1002
{
1000
HIER
1070
     0
1002
}
1002
{
1000
MANEDIT
1070
     0
1002
}
1002
{
1000
NOSEL
1070
     0
1002
}
1002
{
1000
BEHIND
1070
     0
1002
}
1002
{
1000
REACTOR
1002
}
1001
GENIUS_GENOBJ-N-CEN_13
1002
{
1000
OWNER
1000
GEN
1002
}
  0
LINE
  5
442D
330
4729
100
AcDbEntity
  8
0
100
AcDbLine
 10
884.2566109999999
 20
1425.957391
 30
0.0
 11
899.2566109999998
 21
1425.957391
 31
0.0
1001
GENIUS_VERSION2
1070
     2
  0
LINE
  5
442F
330
4729
100
AcDbEntity
  8
0
100
AcDbLine
 10
896.7566109999999
 20
1425.957391
 30
0.0
 11
896.7566109999999
 21
1421.957391
 31
0.0
1001
GENIUS_VERSION2
1070
     2
1001
GENIUS_GENODEF_13
1002
{
1000
HIER
1070
     0
1002
}
1002
{
1000
MANEDIT
1070
     0
1002
}
1002
{
1000
NOSEL
1070
     0
1002
}
1002
{
1000
BEHIND
1070
     0
1002
}
1002
{
1000
REACTOR
1002
}
1001
GENIUS_GENOBJ-N-CEN_13
1002
{
1000
OWNER
1000
GEN
1002
}
  0
LINE
  5
4431
330
4729
100
AcDbEntity
  8
0
100
AcDbLine
 10
886.7566109999998
 20
1425.957391
 30
0.0
 11
886.7566109999998
 21
1421.957391
 31
0.0
1001
GENIUS_VERSION2
1070
     2
1001
GENIUS_GENODEF_13
1002
{
1000
HIER
1070
     0
1002
}
1002
{
1000
MANEDIT
1070
     0
1002
}
1002
{
1000
NOSEL
1070
     0
1002
}
1002
{
1000
BEHIND
1070
     0
1002
}
1002
{
1000
REACTOR
1002
}
1001
GENIUS_GENOBJ-N-CEN_13
1002
{
1000
OWNER
1000
GEN
1002
}
  0
LINE
  5
4433
330
4729
100
AcDbEntity
  8
0
100
AcDbLine
 10
888.7566109999999
 20
1421.957391
 30
0.0
 11
888.7566109999999
 21
1418.957391
 31
0.0
1001
GENIUS_VERSION2
1070
     2
1001
GENIUS_GENODEF_13
1002
{
1000
HIER
1070
     0
1002
}
1002
{
1000
MANEDIT
1070
     0
1002
}
1002
{
1000
NOSEL
1070
     0
1002
}
1002
{
1000
BEHIND
1070
     0
1002
}
1002
{
1000
REACTOR
1002
}
1001
GENIUS_GENOBJ-N-CEN_13
1002
{
1000
OWNER
1000
GEN
1002
}
  0
LINE
  5
4434
330
4729
100
AcDbEntity
  8
0
100
AcDbLine
 10
894.7566109999998
 20
1421.957391
 30
0.0
 11
894.7566109999998
 21
1418.957391
 31
0.0
1001
GENIUS_VERSION2
1070
     2
1001
GENIUS_GENODEF_13
1002
{
1000
HIER
1070
     0
1002
}
1002
{
1000
MANEDIT
1070
     0
1002
}
1002
{
1000
NOSEL
1070
     0
1002
}
1002
{
1000
BEHIND
1070
     0
1002
}
1002
{
1000
REACTOR
1002
}
1001
GENIUS_GENOBJ-N-CEN_13
1002
{
1000
OWNER
1000
GEN
1002
}
  0
ARC
  5
4436
330
4729
100
AcDbEntity
  8
0
100
AcDbCircle
 10
884.2566109999999
 20
1425.457391
 30
0.0
 40
0.5
100
AcDbArc
 50
90.0
 51
180.0
1001
GENIUS_GENODEF_13
1002
{
1000
HIER
1070
     0
1002
}
1002
{
1000
MANEDIT
1070
     0
1002
}
1002
{
1000
NOSEL
1070
     0
1002
}
1002
{
1000
BEHIND
1070
     0
1002
}
1002
{
1000
REACTOR
1002
}
1001
GENIUS_GENOBJ-N-FIL_13
1002
{
1000
OWNER
1000
GEN
1002
}
1001
GENIUS_VERSION2
1070
     2
1001
GENIUS_GENOBJ-N-CEN_13
1002
{
1000
OWNER
1000
GEN
1002
}
  0
ARC
  5
4437
330
4729
100
AcDbEntity
  8
0
100
AcDbCircle
 10
884.2566109999999
 20
1422.457391
 30
0.0
 40
0.5
100
AcDbArc
 50
180.0
 51
270.0
1001
GENIUS_GENODEF_13
1002
{
1000
HIER
1070
     0
1002
}
1002
{
1000
MANEDIT
1070
     0
1002
}
1002
{
1000
NOSEL
1070
     0
1002
}
1002
{
1000
BEHIND
1070
     0
1002
}
1002
{
1000
REACTOR
1002
}
1001
GENIUS_GENOBJ-N-FIL_13
1002
{
1000
OWNER
1000
GEN
1002
}
1001
GENIUS_VERSION2
1070
     2
1001
GENIUS_GENOBJ-N-CEN_13
1002
{
1000
OWNER
1000
GEN
1002
}
  0
ARC
  5
4438
330
4729
100
AcDbEntity
  8
0
100
AcDbCircle
 10
899.2566109999998
 20
1422.457391
 30
0.0
 40
0.5
100
AcDbArc
 50
270.0
 51
0.0
1001
GENIUS_GENODEF_13
1002
{
1000
HIER
1070
     0
1002
}
1002
{
1000
MANEDIT
1070
     0
1002
}
1002
{
1000
NOSEL
1070
     0
1002
}
1002
{
1000
BEHIND
1070
     0
1002
}
1002
{
1000
REACTOR
1002
}
1001
GENIUS_GENOBJ-N-FIL_13
1002
{
1000
OWNER
1000
GEN
1002
}
1001
GENIUS_VERSION2
1070
     2
1001
GENIUS_GENOBJ-N-CEN_13
1002
{
1000
OWNER
1000
GEN
1002
}
  0
ARC
  5
4439
330
4729
100
AcDbEntity
  8
0
100
AcDbCircle
 10
899.2566109999998
 20
1425.457391
 30
0.0
 40
0.5
100
AcDbArc
 50
0.0
 51
90.0
1001
GENIUS_GENODEF_13
1002
{
1000
HIER
1070
     0
1002
}
1002
{
1000
MANEDIT
1070
     0
1002
}
1002
{
1000
NOSEL
1070
     0
1002
}
1002
{
1000
BEHIND
1070
     0
1002
}
1002
{
1000
REACTOR
1002
}
1001
GENIUS_GENOBJ-N-FIL_13
1002
{
1000
OWNER
1000
GEN
1002
}
1001
GENIUS_VERSION2
1070
     2
  0
ARC
  5
443A
330
4729
100
AcDbEntity
  8
0
100
AcDbCircle
 10
885.2566109999999
 20
1424.457391
 30
0.0
 40
1.5
100
AcDbArc
 50
0.0
 51
180.0
  0
ARC
  5
443B
330
4729
100
AcDbEntity
  8
0
100
AcDbCircle
 10
885.2566109999999
 20
1423.457391
 30
0.0
 40
1.5
100
AcDbArc
 50
180.0
 51
0.0
  0
ARC
  5
443C
330
4729
100
AcDbEntity
  8
0
100
AcDbCircle
 10
898.2566109999998
 20
1424.457391
 30
0.0
 40
1.5
100
AcDbArc
 50
0.0
 51
180.0
  0
ARC
  5
443D
330
4729
100
AcDbEntity
  8
0
100
AcDbCircle
 10
898.2566109999998
 20
1423.457391
 30
0.0
 40
1.5
100
AcDbArc
 50
180.0
 51
0.0
  0
ARC
  5
443E
330
4729
100
AcDbEntity
  8
0
100
AcDbCircle
 10
891.7566109999999
 20
1416.874057
 30
0.0
 40
9.083332999999999
100
AcDbArc
 50
56.601512
 51
123.398488
  0
ARC
  5
443F
330
4729
100
AcDbEntity
  8
0
100
AcDbCircle
 10
891.7566109999999
 20
1431.040724
 30
0.0
 40
9.083332999999999
100
AcDbArc
 50
236.601512
 51
303.398488
  0
INSERT
  5
445F
330
4729
100
AcDbEntity
  8
8
100
AcDbBlockReference
  2
*X3
 10
0.0
 20
0.0
 30
0.0
1001
GENIUS_VERSION2
1070
     2
1001
GENIUS_GENODEF_13
1002
{
1000
HIER
1070
     0
1002
}
1002
{
1000
MANEDIT
1070
     0
1002
}
1002
{
1000
NOSEL
1070
     0
1002
}
1002
{
1000
BEHIND
1070
     0
1002
}
1002
{
1000
REACTOR
1002
}
1001
GENIUS_GENOBJ-N-HTC_13
1002
{
1000
OWNER
1000
GEN
1002
}
1001
GENIUS_GENHATCH_13
1002
{
1000
DATA
1040
45.0
1042
2.5
1000
_U
1070
     0
1011
617.8836089999999
1021
1474.114797
1031
0.0
1002
}
1002
{
1000
UCS
1010
0.0
1020
0.0
1030
0.0
1010
1.0
1020
0.0
1030
0.0
1010
0.0
1020
1.0
1030
0.0
1002
}
1001
ACAD
1000
HATCH
1002
{
1070
    19
1000
_U
1040
12.5
1040
0.7853979999999999
1070
     0
1002
}
  0
INSERT
  5
44B9
330
4729
100
AcDbEntity
  8
8
100
AcDbBlockReference
  2
*X4
 10
0.0
 20
0.0
 30
0.0
1001
GENIUS_VERSION2
1070
     2
1001
GENIUS_GENODEF_13
1002
{
1000
HIER
1070
     0
1002
}
1002
{
1000
MANEDIT
1070
     0
1002
}
1002
{
1000
NOSEL
1070
     0
1002
}
1002
{
1000
BEHIND
1070
     0
1002
}
1002
{
1000
REACTOR
1002
}
1001
GENIUS_GENOBJ-N-HTC_13
1002
{
1000
OWNER
1000
GEN
1002
}
1001
GENIUS_GENHATCH_13
1002
{
1000
DATA
1040
45.0
1042
2.5
1000
_U
1070
     0
1011
929.0003249999999
1021
1472.180827
1031
0.0
1002
}
1002
{
1000
UCS
1010
0.0
1020
0.0
1030
0.0
1010
1.0
1020
0.0
1030
0.0
1010
0.0
1020
1.0
1030
0.0
1002
}
1001
ACAD
1000
HATCH
1002
{
1070
    19
1000
_U
1040
12.5
1040
0.7853979999999999
1070
     0
1002
}
  0
INSERT
  5
44D0
330
4729
100
AcDbEntity
  8
8
100
AcDbBlockReference
  2
*X5
 10
0.0
 20
0.0
 30
0.0
1001
GENIUS_VERSION2
1070
     2
1001
GENIUS_GENODEF_13
1002
{
1000
HIER
1070
     0
1002
}
1002
{
1000
MANEDIT
1070
     0
1002
}
1002
{
1000
NOSEL
1070
     0
1002
}
1002
{
1000
BEHIND
1070
     0
1002
}
1002
{
1000
REACTOR
1002
}
1001
GENIUS_GENOBJ-N-HTC_13
1002
{
1000
OWNER
1000
GEN
1002
}
1001
GENIUS_GENHATCH_13
1002
{
1000
DATA
1040
45.0
1042
2.5
1000
_U
1070
     0
1011
790.134857
1021
1442.204329
1031
0.0
1002
}
1002
{
1000
UCS
1010
0.0
1020
0.0
1030
0.0
1010
1.0
1020
0.0
1030
0.0
1010
0.0
1020
1.0
1030
0.0
1002
}
1001
ACAD
1000
HATCH
1002
{
1070
    19
1000
_U
1040
12.5
1040
0.7853979999999999
1070
     0
1002
}
  0
INSERT
  5
4505
330
4729
100
AcDbEntity
  8
8
100
AcDbBlockReference
  2
*X6
 10
0.0
 20
0.0
 30
0.0
1001
GENIUS_VERSION2
1070
     2
1001
GENIUS_GENODEF_13
1002
{
1000
HIER
1070
     0
1002
}
1002
{
1000
MANEDIT
1070
     0
1002
}
1002
{
1000
NOSEL
1070
     0
1002
}
1002
{
1000
BEHIND
1070
     0
1002
}
1002
{
1000
REACTOR
1002
}
1001
GENIUS_GENOBJ-N-HTC_13
1002
{
1000
OWNER
1000
GEN
1002
}
1001
GENIUS_GENHATCH_13
1002
{
1000
DATA
1040
135.0
1042
2.7
1000
_U
1070
     0
1011
833.961401
1021
1317.459331
1031
0.0
1002
}
1002
{
1000
UCS
1010
0.0
1020
0.0
1030
0.0
1010
1.0
1020
0.0
1030
0.0
1010
0.0
1020
1.0
1030
0.0
1002
}
1001
ACAD
1000
HATCH
1002
{
1070
    19
1000
_U
1040
13.5
1040
2.356193999999999
1070
     0
1002
}
  0
INSERT
  5
4516
330
4729
100
AcDbEntity
  8
8
100
AcDbBlockReference
  2
*X7
 10
0.0
 20
0.0
 30
0.0
1001
GENIUS_VERSION2
1070
     2
1001
GENIUS_GENODEF_13
1002
{
1000
HIER
1070
     0
1002
}
1002
{
1000
MANEDIT
1070
     0
1002
}
1002
{
1000
NOSEL
1070
     0
1002
}
1002
{
1000
BEHIND
1070
     0
1002
}
1002
{
1000
REACTOR
1002
}
1001
GENIUS_GENOBJ-N-HTC_13
1002
{
1000
OWNER
1000
GEN
1002
}
1001
GENIUS_GENHATCH_13
1002
{
1000
DATA
1040
135.0
1042
2.7
1000
_U
1070
     0
1011
828.842999
1021
1469.279878
1031
0.0
1002
}
1002
{
1000
UCS
1010
0.0
1020
0.0
1030
0.0
1010
1.0
1020
0.0
1030
0.0
1010
0.0
1020
1.0
1030
0.0
1002
}
1001
ACAD
1000
HATCH
1002
{
1070
    19
1000
_U
1040
13.5
1040
2.356193999999999
1070
     0
1002
}
  0
INSERT
  5
4523
330
4729
100
AcDbEntity
  8
8
100
AcDbBlockReference
  2
*X8
 10
0.0
 20
0.0
 30
0.0
1001
GENIUS_VERSION2
1070
     2
1001
GENIUS_GENODEF_13
1002
{
1000
HIER
1070
     0
1002
}
1002
{
1000
MANEDIT
1070
     0
1002
}
1002
{
1000
NOSEL
1070
     0
1002
}
1002
{
1000
BEHIND
1070
     0
1002
}
1002
{
1000
REACTOR
1002
}
1001
GENIUS_GENOBJ-N-HTC_13
1002
{
1000
OWNER
1000
GEN
1002
}
1001
GENIUS_GENHATCH_13
1002
{
1000
DATA
1040
135.0
1042
2.7
1000
_U
1070
     0
1011
887.872922
1021
1469.763367
1031
0.0
1002
}
1002
{
1000
UCS
1010
0.0
1020
0.0
1030
0.0
1010
1.0
1020
0.0
1030
0.0
1010
0.0
1020
1.0
1030
0.0
1002
}
1001
ACAD
1000
HATCH
1002
{
1070
    19
1000
_U
1040
13.5
1040
2.356193999999999
1070
     0
1002
}
  0
INSERT
  5
4532
330
4729
100
AcDbEntity
  8
8
100
AcDbBlockReference
  2
*X9
 10
0.0
 20
0.0
 30
0.0
1001
GENIUS_VERSION2
1070
     2
1001
GENIUS_GENODEF_13
1002
{
1000
HIER
1070
     0
1002
}
1002
{
1000
MANEDIT
1070
     0
1002
}
1002
{
1000
NOSEL
1070
     0
1002
}
1002
{
1000
BEHIND
1070
     0
1002
}
1002
{
1000
REACTOR
1002
}
1001
GENIUS_GENOBJ-N-HTC_13
1002
{
1000
OWNER
1000
GEN
1002
}
1001
GENIUS_GENHATCH_13
1002
{
1000
DATA
1040
135.0
1042
1.0
1000
_U
1070
     0
1011
625.704999
1021
1436.936331
1031
0.0
1002
}
1002
{
1000
UCS
1010
0.0
1020
0.0
1030
0.0
1010
1.0
1020
0.0
1030
0.0
1010
0.0
1020
1.0
1030
0.0
1002
}
1001
ACAD
1000
HATCH
1002
{
1070
    19
1000
_U
1040
5.0
1040
2.356193999999999
1070
     0
1002
}
  0
INSERT
  5
454C
330
4729
100
AcDbEntity
  8
8
100
AcDbBlockReference
  2
*X10
 10
0.0
 20
0.0
 30
0.0
1001
GENIUS_VERSION2
1070
     2
1001
GENIUS_GENODEF_13
1002
{
1000
HIER
1070
     0
1002
}
1002
{
1000
MANEDIT
1070
     0
1002
}
1002
{
1000
NOSEL
1070
     0
1002
}
1002
{
1000
BEHIND
1070
     0
1002
}
1002
{
1000
REACTOR
1002
}
1001
GENIUS_GENOBJ-N-HTC_13
1002
{
1000
OWNER
1000
GEN
1002
}
1001
GENIUS_GENHATCH_13
1002
{
1000
DATA
1040
135.0
1042
1.0
1000
_U
1070
     0
1011
770.2359119999999
1021
1425.021399
1031
0.0
1002
}
1002
{
1000
UCS
1010
0.0
1020
0.0
1030
0.0
1010
1.0
1020
0.0
1030
0.0
1010
0.0
1020
1.0
1030
0.0
1002
}
1001
ACAD
1000
HATCH
1002
{
1070
    19
1000
_U
1040
5.0
1040
2.356193999999999
1070
     0
1002
}
  0
DIMENSION
  5
4571
330
4729
100
AcDbEntity
  8
5
100
AcDbDimension
  2
*D11
 10
965.7730619999998
 20
1303.957391
 30
0.0
 11
954.0230619999999
 21
1273.957391
 31
0.0
  1
<>
 71
     5
 42
-1.0
  3
GEN-ISO
100
AcDbAlignedDimension
 13
912.8255410000001
 23
1243.957391
 33
0.0
 14
912.8255410000001
 24
1303.957391
 34
0.0
 50
90.0
100
AcDbRotatedDimension
1001
GENIUS_GENDTOL_13
1000

1000
h7
1000

1040
0.0
  0
DIMENSION
  5
458D
330
4729
100
AcDbEntity
  8
5
100
AcDbDimension
  2
*D12
 10
578.21686
 20
1478.957391
 30
0.0
 11
566.4668599999999
 21
1361.457391
 31
0.0
  1
<>
 71
     5
 42
-1.0
  3
GEN-ISO
100
AcDbAlignedDimension
 13
794.825541
 23
1243.957391
 33
0.0
 14
794.825541
 24
1478.957391
 34
0.0
 50
90.0
100
AcDbRotatedDimension
1001
GENIUS_GENDTOL_13
1000

1000
h7
1000

1040
0.0
  0
DIMENSION
  5
45B6
330
4729
100
AcDbEntity
  8
5
100
AcDbDimension
  2
*D13
 10
697.825541
 20
1385.653951
 30
0.0
 11
738.468553
 21
1385.653951
 31
0.0
 70
   128
  1
<>
 71
     5
 42
-1.0
  3
GEN-ISO
100
AcDbAlignedDimension
 13
688.325541
 23
1403.973931
 33
0.0
 14
697.825541
 24
1403.973931
 34
0.0
100
AcDbRotatedDimension
1001
GENIUS_GENDTOL_13
1000

1000
h7
1000

1040
0.0
  0
DIMENSION
  5
45E1
330
4729
100
AcDbEntity
  8
5
100
AcDbDimension
  2
*D14
 10
932.825541
 20
1603.488869
 30
0.0
 11
773.825541
 21
1603.488869
 31
0.0
 70
   128
  1
<>
 71
     5
 42
-1.0
  3
GEN-ISO
100
AcDbAlignedDimension
 13
614.825541
 23
1478.957391
 33
0.0
 14
932.825541
 24
1478.957391
 34
0.0
100
AcDbRotatedDimension
1001
GENIUS_GENDTOL_13
1000

1000
h7
1000

1040
0.0
  0
DIMENSION
  5
4608
330
4729
100
AcDbEntity
  8
5
100
AcDbDimension
  2
*D15
 10
785.825541
 20
1573.388771
 30
0.0
 11
700.325541
 21
1573.388771
 31
0.0
 70
   128
  1
%%c152
 71
     5
 42
-1.0
  3
GEN-ISO
100
AcDbAlignedDimension
 13
614.825541
 23
1478.957391
 33
0.0
 14
785.825541
 24
1478.957391
 34
0.0
100
AcDbRotatedDimension
1001
GENIUS_GENDTOL_13
1000

1000
h7
1000

1040
0.0
  0
DIMENSION
  5
4645
330
4729
100
AcDbEntity
  8
5
100
AcDbDimension
  2
*D16
 10
853.8255410000001
 20
1540.644792
 30
0.0
 11
807.6462840000001
 21
1540.644792
 31
0.0
 70
   128
  1
<>
 71
     5
 42
-1.0
  3
GEN-ISO
100
AcDbAlignedDimension
 13
697.825541
 23
1483.997044
 33
0.0
 14
853.8255410000001
 24
1483.997044
 34
0.0
100
AcDbRotatedDimension
1001
GENIUS_GENDTOL_13
1000

1000
h7
1000

1040
0.0
  0
DIMENSION
  5
4682
330
4729
100
AcDbEntity
  8
5
100
AcDbDimension
  2
*D17
 10
768.825541
 20
1508.025448
 30
0.0
 11
730.575541
 21
1508.025448
 31
0.0
 70
   128
  1
%%c124
 71
     5
 42
-1.0
  3
GEN-ISO
100
AcDbAlignedDimension
 13
626.825541
 23
1473.2816
 33
0.0
 14
768.825541
 24
1473.2816
 34
0.0
100
AcDbRotatedDimension
1001
GENIUS_GENDTOL_13
1000

1000
h7
1000

1040
0.0
  0
LINE
  5
470D
330
4729
100
AcDbEntity
  8
0
100
AcDbLine
 10
853.8255410000001
 20
991.4394679999999
 30
0.0
 11
853.8255410000001
 21
1109.439468
 31
0.0
  0
LINE
  5
470E
330
4729
100
AcDbEntity
  8
0
100
AcDbLine
 10
853.8255410000001
 20
1124.439468
 30
0.0
 11
853.8255410000001
 21
1139.439468
 31
0.0
1001
GENIUS_VERSION2
1070
     2
  0
VIEWPORT
  5
2062
102
{ACAD_XDICTIONARY
360
4861
102
}
330
4726
100
AcDbEntity
 67
     1
  8
0
100
AcDbViewport
 10
261.5176990000001
 20
148.5
 30
0.0
 40
523.0353980000001
 41
297.0
 68
    -1
 69
     1
 12
261.5176990000001
 22
148.5
 13
0.0
 23
0.0
 14
1.0
 24
1.0
 15
10.0
 25
10.0
 16
0.0
 26
0.0
 36
1.0
 17
0.0
 27
0.0
 37
0.0
 42
50.0
 43
0.0
 44
0.0
 45
297.0
 50
0.0
 51
0.0
 72
   100
 90
    32800
  1

281
     0
 71
     1
 74
     0
110
0.0
120
0.0
130
0.0
111
1.0
121
0.0
131
0.0
112
0.0
122
1.0
132
0.0
 79
     0
146
0.0
1001
GENIUS_GENSCREG_15
1000
PF
1040
1.0
1000
DF
1040
1.0
1000
MIN
1011
0.0
1021
0.0
1031
0.0
1000
MAX
1011
523.0353980000001
1021
297.0
1031
0.0
1000
FLAGS
1070
     4
1001
GENIUS_GENOBJ-N-SDF_13
1002
{
1000
OWNER
1000
GEN
1002
}
1001
GENIUS_GENODEF_13
1002
{
1000
HIER
1070
     0
1002
}
1002
{
1000
MANEDIT
1070
     0
1002
}
1002
{
1000
NOSEL
1070
     0
1002
}
1002
{
1000
BEHIND
1070
     0
1002
}
1002
{
1000
OTHER
1070
     0
1002
}
1002
{
1000
REACTOR
1002
}
  0
ENDSEC
  0
SECTION
  2
OBJECTS
  0
DICTIONARY
  5
471E
330
0
100
AcDbDictionary
281
     1
  3
ACAD_COLOR
350
4783
  3
ACAD_GROUP
350
471F
  3
ACAD_LAYOUT
350
4786
  3
ACAD_MATERIAL
350
4782
  3
ACAD_MLINESTYLE
350
472C
  3
ACAD_PLOTSETTINGS
350
4787
  3
ACAD_PLOTSTYLENAME
350
4780
  3
ACAD_TABLESTYLE
350
4784
  3
ACDBHEADERROUNDTRIPXREC
350
4860
  3
ACDBVARIABLEDICTIONARY
350
4775
  3
AcmDictionary
350
47E5
  3
AMG
350
478B
  3
AMGSNAPSETTINGS
350
4854
  0
DICTIONARY
  5
4861
330
2062
100
AcDbDictionary
280
     1
281
     1
  3
ACAD_XREC_ROUNDTRIP
360
4862
  0
DICTIONARY
  5
4783
102
{ACAD_REACTORS
330
471E
102
}
330
471E
100
AcDbDictionary
281
     1
  0
DICTIONARY
  5
471F
102
{ACAD_REACTORS
330
471E
102
}
330
471E
100
AcDbDictionary
281
     1
  0
DICTIONARY
  5
4786
102
{ACAD_REACTORS
330
471E
102
}
330
471E
100
AcDbDictionary
281
     1
  3
Layout1
350
4789
  3
Model
350
4788
  0
DICTIONARY
  5
4782
102
{ACAD_REACTORS
330
471E
102
}
330
471E
100
AcDbDictionary
281
     1
  0
DICTIONARY
  5
472C
102
{ACAD_REACTORS
330
471E
102
}
330
471E
100
AcDbDictionary
281
     1
  3
STANDARD
350
472D
  0
DICTIONARY
  5
4787
102
{ACAD_REACTORS
330
471E
102
}
330
471E
100
AcDbDictionary
281
     1
  0
ACDBDICTIONARYWDFLT
  5
4780
102
{ACAD_REACTORS
330
471E
102
}
330
471E
100
AcDbDictionary
281
     1
  3
Normal
350
4781
100
AcDbDictionaryWithDefault
340
4781
  0
DICTIONARY
  5
4784
102
{ACAD_REACTORS
330
471E
102
}
330
471E
100
AcDbDictionary
281
     1
  3
Standard
350
4785
  0
DICTIONARY
  5
4860
102
{ACAD_REACTORS
330
471E
102
}
330
471E
100
AcDbDictionary
281
     1
  0
DICTIONARY
  5
4775
102
{ACAD_REACTORS
330
471E
102
}
330
471E
100
AcDbDictionary
281
     1
  3
CTABLESTYLE
350
485C
  3
DIMADEC
350
4776
  3
DIMASSOC
350
485D
  3
PROJECTNAME
350
485E
  0
DICTIONARY
  5
47E5
102
{ACAD_REACTORS
330
471E
102
}
330
471E
100
AcDbDictionary
281
     1
  3
AcmStdDictionary
350
47F0
  3
AMDTSECTSYM_ARROWCOLOR
350
4813
  0
DICTIONARY
  5
478B
102
{ACAD_REACTORS
330
471E
102
}
330
471E
100
AcDbDictionary
281
     1
  0
DICTIONARY
  5
4854
102
{ACAD_REACTORS
330
471E
102
}
330
471E
100
AcDbDictionary
281
     1
  0
XRECORD
  5
4862
102
{ACAD_REACTORS
330
4861
102
}
330
4861
100
AcDbXrecord
280
     1
102
SHADEPLOT
 70
     0
  0
LAYOUT
  5
4789
102
{ACAD_XDICTIONARY
360
4865
102
}
102
{ACAD_REACTORS
330
4786
102
}
330
4786
100
AcDbPlotSettings
  1

  2
Xerox Document Centre CS50 PS
  4

  6

 40
0.0
 41
0.0
 42
0.0
 43
0.0
 44
0.0
 45
0.0
 46
0.0
 47
0.0
 48
0.0
 49
0.0
140
0.0
141
0.0
142
1.0
143
1.0
 70
   688
 72
     0
 73
     0
 74
     5
  7

 75
    16
147
1.0
148
0.0
149
0.0
100
AcDbLayout
  1
Layout1
 70
     1
 71
     1
 10
0.0
 20
0.0
 11
420.0
 21
297.0
 12
0.0
 22
0.0
 32
0.0
 14
1.000000000000000E+20
 24
1.000000000000000E+20
 34
1.000000000000000E+20
 15
-1.000000000000000E+20
 25
-1.000000000000000E+20
 35
-1.000000000000000E+20
146
0.0
 13
0.0
 23
0.0
 33
0.0
 16
1.0
 26
0.0
 36
0.0
 17
0.0
 27
1.0
 37
0.0
 76
     0
330
4726
  0
LAYOUT
  5
4788
102
{ACAD_XDICTIONARY
360
4863
102
}
102
{ACAD_REACTORS
330
4786
102
}
330
4786
100
AcDbPlotSettings
  1

  2
Xerox Document Centre CS50 PS
  4

  6

 40
0.0
 41
0.0
 42
0.0
 43
0.0
 44
0.0
 45
0.0
 46
0.0
 47
0.0
 48
0.0
 49
0.0
140
0.0
141
0.0
142
1.0
143
1.0
 70
  1712
 72
     0
 73
     0
 74
     0
  7

 75
     0
147
1.0
148
0.0
149
0.0
100
AcDbLayout
  1
Model
 70
     1
 71
     0
 10
0.0
 20
0.0
 11
12.0
 21
9.0
 12
0.0
 22
0.0
 32
0.0
 14
0.0
 24
0.0
 34
0.0
 15
0.0
 25
0.0
 35
0.0
146
0.0
 13
0.0
 23
0.0
 33
0.0
 16
1.0
 26
0.0
 36
0.0
 17
0.0
 27
1.0
 37
0.0
 76
     0
330
4729
  0
MLINESTYLE
  5
472D
102
{ACAD_REACTORS
330
472C
102
}
330
472C
100
AcDbMlineStyle
  2
STANDARD
 70
     0
  3

 62
   256
 51
90.0
 52
90.0
 71
     2
 49
0.5
 62
   256
  6
BYLAYER
 49
-0.5
 62
   256
  6
BYLAYER
  0
ACDBPLACEHOLDER
  5
4781
102
{ACAD_REACTORS
330
4780
102
}
330
4780
  0
TABLESTYLE
  5
4785
102
{ACAD_REACTORS
330
4784
102
}
330
4784
100
AcDbTableStyle
  3
Standard
 70
     0
 71
     0
 40
1.5
 41
1.5
280
     0
281
     0
  7
STANDARD
140
4.5
170
     2
 62
     0
 63
     7
283
     0
274
    -2
284
     1
 64
     0
275
    -2
285
     1
 65
     0
276
    -2
286
     1
 66
     0
277
    -2
287
     1
 67
     0
278
    -2
288
     1
 68
     0
279
    -2
289
     1
 69
     0
  7
STANDARD
140
6.0
170
     5
 62
     0
 63
     7
283
     0
274
    -2
284
     1
 64
     0
275
    -2
285
     1
 65
     0
276
    -2
286
     1
 66
     0
277
    -2
287
     1
 67
     0
278
    -2
288
     1
 68
     0
279
    -2
289
     1
 69
     0
  7
STANDARD
140
4.5
170
     5
 62
     0
 63
     7
283
     0
274
    -2
284
     1
 64
     0
275
    -2
285
     1
 65
     0
276
    -2
286
     1
 66
     0
277
    -2
287
     1
 67
     0
278
    -2
288
     1
 68
     0
279
    -2
289
     1
 69
     0
  0
DICTIONARYVAR
  5
485C
102
{ACAD_REACTORS
330
4775
102
}
330
4775
100
DictionaryVariables
280
     0
  1
STANDARD
  0
DICTIONARYVAR
  5
4776
102
{ACAD_REACTORS
330
4775
102
}
330
4775
100
DictionaryVariables
280
     0
  1
0
  0
DICTIONARYVAR
  5
485D
102
{ACAD_REACTORS
330
4775
102
}
330
4775
100
DictionaryVariables
280
     0
  1
1
  0
DICTIONARYVAR
  5
485E
102
{ACAD_REACTORS
330
4775
102
}
330
4775
100
DictionaryVariables
280
     0
  1

  0
DICTIONARY
  5
47F0
102
{ACAD_REACTORS
330
47E5
102
}
330
47E5
100
AcDbDictionary
281
     1
  0
XRECORD
  5
4813
102
{ACAD_REACTORS
330
47E5
102
}
330
47E5
100
AcDbXrecord
280
     1
 90
-1023410169
  0
DICTIONARY
  5
4865
330
4789
100
AcDbDictionary
280
     1
281
     1
  3
ACAD_XREC_ROUNDTRIP
360
4866
  0
DICTIONARY
  5
4863
330
4788
100
AcDbDictionary
280
     1
281
     1
  3
ACAD_XREC_ROUNDTRIP
360
4864
  0
XRECORD
  5
4866
102
{ACAD_REACTORS
330
4865
102
}
330
4865
100
AcDbXrecord
280
     1
102
SHADEPLOT
 70
     0
102
SHADEPLOTRESLEVEL
 70
     2
102
SHADEPLOTCUSTOMDPI
 70
   300
  0
XRECORD
  5
4864
102
{ACAD_REACTORS
330
4863
102
}
330
4863
100
AcDbXrecord
280
     1
102
SHADEPLOT
 70
     0
102
SHADEPLOTRESLEVEL
 70
     2
102
SHADEPLOTCUSTOMDPI
 70
   300
  0
ENDSEC
  0
EOF
